Всегда рабочее зеркало без VPN и Proxy просто перед .vidak.icu напиши любое слово или цифру, Пример http://lrbs.vidak.icu

MVO

2 сезон

2 сезон

1

1 сезон

iTunes

2 сезон

13

1 сезон

Распродажа

pack

Рекомендуем

Пиратка

30

ВАЖНО

RePack

MK11

RePack

jed

RePack

fifa19

RePack

RDR2

RePack

NEED FOR SPEED™ PAYBACK

Кинопоиск HD

6 сезон

 Острые козырьки 6 сезон

Все сериалы

все сериалы на PB.wtf

RePack

FAR CRY 5

Anonymous, нам критически не хватает 5601 руб. на оплату серверов и переферии за Апрель, помоги нам пожалуйста, вся надежда только на тебя. В благодарность мы отключим тебе всю рекламу на сайте!

×
  
Magnet ссылка

Легенды «Смертельной битвы»: Месть Скорпиона / Mortal Kombat Legends: Scorpion's Revenge (Этан Сполдинг) [2020, мультфильм, фэнтези, боевик, приключения, WEB-DL 1080p] [MVO] (NewComers) pb.wtf

Легенды «Смертельной битвы»: Месть Скорпиона через торрент pb.wtf

Раздают: 1 [ 0 KB/s ]
Размер: 4.13 GB | Добавлен: 2 года 1 мес. назад | Торрент скачан:710 раз
Смотреть онлайн Легенды «Смертельной битвы»: Месть Скорпиона | Скачать    Ребята, помогите собрать деньги на оплату серверов!!!

15-04-2020 18:32 Легенды «Смертельной битвы»: Месть Скорпиона Скачать торрент  

Легенды «Смертельной битвы»: Месть Скорпиона / Mortal Kombat Legends: Scorpion's Revenge


Год выпуска: 2020
Страна: США
Жанр: мультфильм, фэнтези, боевик, приключения
Продолжительность: 01:20:05
Перевод: Профессиональный (многоголосый закадровый) - NewComers
Субтитры: нет

Режиссер:
Этан Сполдинг / Ethan Spaulding
В ролях: Дженнифер Карпентер, Грэй Гриффин, Джоэл МакХэйл, Кевин Майкл Ричардсон, Стивен Блум, Дэрин Де Пол, Робин Аткин Даунс, Фред Таташиор, Джордан Родригез, Патрик Сэйтц

Описание: Сюжет мультфильма расскажет об очередном смертельном турнире Шан Цзуна, в котором участвуют бойцы с Земли и других миров. В центре истории окажется жаждущий мести за смерть семьи и клана Скорпион, который соглашается принять участие в межпространственном состязании.



Качество видео: WEB-DL 1080p
Формат видео: MKV

Видео: 1920x1080 (16:9), 23.976, AVC, 6490 kbps
Аудио 1: русский AC3, 448 kbps, 48 kHz, 6 ch
Аудио 2: русский AC3, 448 kbps, 48 kHz, 6 ch
General
Unique ID : 203905830789179994398356480724349464613 (0x9966D5A4195FEB11B0351A5141D7B025)
Complete name : E:\Video\Mortal.Kombat.Legends.Scorpions.Revenge.1080p.NewComers.mkv
Format : Matroska
Format version : Version 4
File size : 4.13 GiB
Duration : 1 h 20 min
Overall bit rate mode : Constant
Overall bit rate : 7 387 kb/s
Encoded date : UTC 2020-04-14 13:58:04
Writing application : mkvmerge v9.3.1 ('Mask Machine') 64bit
Writing library : libebml v1.3.4 + libmatroska v1.4.5

Video
ID : 1
Format : AVC
Format/Info : Advanced Video Codec
Format profile : High@L4
Format settings : CABAC / 4 Ref Frames
Format settings, CABAC : Yes
Format settings, Reference : 4 frames
Codec ID : V_MPEG4/ISO/AVC
Duration : 1 h 20 min
Bit rate mode : Constant
Bit rate : 6 490 kb/s
Nominal bit rate : 10 000 kb/s
Width : 1 920 pixels
Height : 1 080 pixels
Display aspect ratio : 16:9
Frame rate mode : Constant
Frame rate : 23.976 (24000/1001) FPS
Color space : YUV
Chroma subsampling : 4:2:0
Bit depth : 8 bits
Scan type : Progressive
Bits/(Pixel*Frame) : 0.131
Stream size : 3.63 GiB (88%)
Default : Yes
Forced : No
Color range : Limited
Color primaries : BT.709
Transfer characteristics : BT.709
Matrix coefficients : BT.709

Audio #1
ID : 2
Format : AC-3
Format/Info : Audio Coding 3
Commercial name : Dolby Digital
Codec ID : A_AC3
Duration : 1 h 20 min
Bit rate mode : Constant
Bit rate : 448 kb/s
Channel(s) : 6 channels
Channel layout : L R C LFE Ls Rs
Sampling rate : 48.0 kHz
Frame rate : 31.250 FPS (1536 SPF)
Compression mode : Lossy
Stream size : 257 MiB (6%)
Title : NewComers
Language : Russian
Service kind : Complete Main
Default : Yes
Forced : Yes

Audio #2
ID : 3
Format : AC-3
Format/Info : Audio Coding 3
Commercial name : Dolby Digital
Codec ID : A_AC3
Duration : 1 h 20 min
Bit rate mode : Constant
Bit rate : 448 kb/s
Channel(s) : 6 channels
Channel layout : L R C LFE Ls Rs
Sampling rate : 48.0 kHz
Frame rate : 31.250 FPS (1536 SPF)
Compression mode : Lossy
Stream size : 257 MiB (6%)
Service kind : Complete Main
Default : No
Forced : No
скриншот  скриншот  скриншот  
pb.wtf



Скачать Легенды «Смертельной битвы»: Месть Скорпиона через торрент https://d.radikal.ru/d11/2004/f9/1fbbb3156ee4.jpg Скачать, смотреть онлайн Легенды «Смертельной битвы»: Месть Скорпиона бесплантно в хорошем качестве Описание: Сюжет мультфильма расскажет об очередном смертельном турнире Шан Цзуна, в котором участвуют бойцы с Земли и других миров. В ... 9.9 10 30
Торрент: Зарегистрирован [2020-04-15 18:32] · скачан: 710 раз
Статус: √ проверено
Размер: 4.13 GB
Как cкачать? Как скачать Легенды «Смертельной битвы»: Месть Скорпиона через торрент | UTorrent

28-11-2019 20:33  

Отключить всю рекламу на сайте

16-04-2020 20:37 Легенды «Смертельной битвы»: Месть Скорпиона Скачать торрент  

классс!!!pb.wtf



17-04-2020 05:19 Легенды «Смертельной битвы»: Месть Скорпиона Скачать торрент  

jokerbooy писал(а):

классс!!!

понравился мульт ?pb.wtf



19-04-2020 18:36 Легенды «Смертельной битвы»: Месть Скорпиона Скачать торрент  

Неплохой, но короткий и чутка бредовый. На сеге некоторые битвы и то длились дольше, чем тут) Куча отсылок к компьютерной игре, типа фаталити и ломающихся костей. Но предыстории героев порадовали.
Да, не включайте громко звук, когда дерется Лю-Канг, иначе соседи подумают, что вы смотрите японское порно)))pb.wtf



18-05-2020 18:40 Легенды «Смертельной битвы»: Месть Скорпиона Скачать торрент  

здорово!pb.wtf



    Дорогой пользователь! Огромная просьба, поблагодарите релизера, оцените раздачу и оставьте свои комментарий, если Вы скачали Легенды «Смертельной битвы»: Месть Скорпиона через торрент бесплатно!
    Комментировать посты могут только пользователи прошедшие не сложную регистрацию
    Показать сообщения:    

    Легенды «Смертельной битвы»: Месть Скорпиона через торрент
    Скачать бесплатно Легенды «Смертельной битвы»: Месть Скорпиона
    Легенды «Смертельной битвы»: Месть Скорпиона скачать торрент
    Легенды «Смертельной битвы»: Месть Скорпиона смотреть онлайн
    Cкачать фильм Легенды «Смертельной битвы»: Месть Скорпиона бесплатно
    Легенды «Смертельной битвы»: Месть Скорпиона скачать торрент в хорошем качестве
    Легенды «Смертельной битвы»: Месть Скорпиона смотреть онлайн бесплатно в хорошем качестве


    Вы не можете начинать темы
    Вы не можете отвечать на сообщения
    Вы не можете редактировать свои сообщения
    Вы не можете удалять свои сообщения
    Вы не можете голосовать в опросах
    Вы не можете прикреплять файлы к сообщениям
    Вы можете скачивать файлы