Ссылка на приватное зеркало нашего сайта всего за 1$. Внимание количество ограничено!!!

2 сезон

iTunes

1 сезон

1

2 сезон

2 сезон

iTunes

1 сезон

RePack

30

Ultimate

ВАЖНО

ИГРА 18+

pack

RePack

MK11
pack

Забери бонус

RePack

jed

!!Акция!!

Alien_Rage

RePack

fifa19

RePack

Assassins Creed: Odyssey

RePack

NEED FOR SPEED™ PAYBACK

4 сезон

9 сезон

Бесстыжие 9 сезон

Все сериалы

все сериалы на PB.wtf

RePack

FAR CRY 5
  

Nightwish - Decades: Live In Buenos Aires (2CD) - 2019/ FLAC/ tracks +.cue/ lossless/ Symphonic Power Metal pb.wtf

Nightwish - Decades: Live In Buenos Aires через торрент pb.wtf

Размер: 951 MB | Добавлен: 7 мес. назад | Торрент скачан:14 раз
Скачать  

16-04-2020 09:00 Nightwish - Decades: Live In Buenos Aires Скачать торрент  


Nightwish - Decades: Live In Buenos Aires (2CD)


Год издания: 2019
Страна: Finland
Жанр: Symphonic Power Metal
Продолжительность: 2:01:25
Лейбл издания: Nuclear Blast
Страна-выпуска диска: EU
Номер по каталогу: 2736148972
Формат: FLAC
Битрейт аудио: Lossless
Тип рипа: tracks +.cue
Наличие сканов в содержимом раздачи: да


01. Swanheart (2:50)
02. End Of All Hope (4:01)
03. Wish I Had An Angel (4:20)
04. 10th Man Down (5:28)
05. Come Cover Me (5:48)
06. Gethsemane (5:42)
07. Elan (4:27)
08. Sacrament Of Wilderness (4:23)
09. Deep Silent Complete (4:20)
10. Dead Boy´s Poem (6:50)
11. Elvenjig (2:50)
12. Elvenpath (5:55)
13. I Want My Tears Back (5:25)

01. Amaranth (4:42)
02. The Carpenter (6:07)
03. The Kinslayer (4:18)
04. Devil & The Deep Dark Ocean (4:56)
05. Nemo (4:55)
06. Slaying The Dreamer (5:12)
07. The Greatest Show On Earth (16:59)
08. Ghost Love Score (11:55)

Код:

Exact Audio Copy V1.3 from 2. September 2016

EAC extraction logfile from 13. January 2020, 18:08

Nightwish / Decades (Live In Buenos Aires)

Used drive  : PLEXTOR PX-891SAF PLUS   Adapter: 1  ID: 0

Read mode               : Secure
Utilize accurate stream : Yes
Defeat audio cache      : Yes
Make use of C2 pointers : No

Read offset correction                      : 6
Overread into Lead-In and Lead-Out          : No
Fill up missing offset samples with silence : Yes
Delete leading and trailing silent blocks   : No
Null samples used in CRC calculations       : Yes
Used interface                              : Native Win32 interface for Win NT & 2000
Gap handling                                : Appended to previous track

Used output format              : User Defined Encoder
Selected bitrate                : 1024 kBit/s
Quality                         : High
Add ID3 tag                     : No
Command line compressor         : C:\Program Files (x86)\Exact Audio Copy\Flac\flac.exe
Additional command line options : -0 -V -T "ARTIST=%artist%" -T "TITLE=%title%" -T "ALBUM=%albumtitle%" -T "DATE=%year%" -T "TRACKNUMBER=%tracknr%" -T "TOTALTRACKS=%numtracks%" -T "GENRE=%genre%" -T "COMMENT=" %source%

TOC of the extracted CD

     Track |   Start  |  Length  | Start sector | End sector
    ---------------------------------------------------------
        1  |  0:00.00 |  2:49.66 |         0    |    12740
        2  |  2:49.66 |  4:00.45 |     12741    |    30785
        3  |  6:50.36 |  4:19.69 |     30786    |    50279
        4  | 11:10.30 |  5:28.09 |     50280    |    74888
        5  | 16:38.39 |  5:48.23 |     74889    |   101011
        6  | 22:26.62 |  5:42.16 |    101012    |   126677
        7  | 28:09.03 |  4:27.12 |    126678    |   146714
        8  | 32:36.15 |  4:23.31 |    146715    |   166470
        9  | 36:59.46 |  4:19.71 |    166471    |   185966
       10  | 41:19.42 |  6:50.19 |    185967    |   216735
       11  | 48:09.61 |  2:50.37 |    216736    |   229522
       12  | 51:00.23 |  5:54.65 |    229523    |   256137
       13  | 56:55.13 |  5:25.08 |    256138    |   280520

Track  1

     Filename E:\Nightwish - Decades (Live In Buenos Aires 2 CD 2019)[FLAC]-Naftamusic\CD 1\01 - Swanheart.wav

     Pre-gap length  0:00:02.00

     Peak level 99.4 %
     Extraction speed 2.4 X
     Track quality 100.0 %
     Test CRC DD4F4F01
     Copy CRC DD4F4F01
     Accurately ripped (confidence 1)  [3E2946B5]  (AR v2)
     Copy OK

Track  2

     Filename E:\Nightwish - Decades (Live In Buenos Aires 2 CD 2019)[FLAC]-Naftamusic\CD 1\02 - End Of All Hope.wav

     Peak level 100.0 %
     Extraction speed 2.8 X
     Track quality 100.0 %
     Test CRC 915FE470
     Copy CRC 915FE470
     Accurately ripped (confidence 1)  [01190D1C]  (AR v2)
     Copy OK

Track  3

     Filename E:\Nightwish - Decades (Live In Buenos Aires 2 CD 2019)[FLAC]-Naftamusic\CD 1\03 - Wish I Had An Angel.wav

     Peak level 100.0 %
     Extraction speed 2.5 X
     Track quality 99.9 %
     Test CRC EEC89F71
     Copy CRC EEC89F71
     Accurately ripped (confidence 1)  [C8C70D04]  (AR v2)
     Copy OK

Track  4

     Filename E:\Nightwish - Decades (Live In Buenos Aires 2 CD 2019)[FLAC]-Naftamusic\CD 1\04 - 10th Man Down.wav

     Peak level 100.0 %
     Extraction speed 3.5 X
     Track quality 100.0 %
     Test CRC 1C81817E
     Copy CRC 1C81817E
     Accurately ripped (confidence 1)  [353BE568]  (AR v2)
     Copy OK

Track  5

     Filename E:\Nightwish - Decades (Live In Buenos Aires 2 CD 2019)[FLAC]-Naftamusic\CD 1\05 - Come Cover Me.wav

     Peak level 100.0 %
     Extraction speed 3.9 X
     Track quality 100.0 %
     Test CRC 0A1C8965
     Copy CRC 0A1C8965
     Accurately ripped (confidence 1)  [7313CF0B]  (AR v2)
     Copy OK

Track  6

     Filename E:\Nightwish - Decades (Live In Buenos Aires 2 CD 2019)[FLAC]-Naftamusic\CD 1\06 - Gethsemane.wav

     Peak level 100.0 %
     Extraction speed 4.2 X
     Track quality 100.0 %
     Test CRC 4EC2D9D4
     Copy CRC 4EC2D9D4
     Accurately ripped (confidence 1)  [3AD49F81]  (AR v2)
     Copy OK

Track  7

     Filename E:\Nightwish - Decades (Live In Buenos Aires 2 CD 2019)[FLAC]-Naftamusic\CD 1\07 - Elan.wav

     Peak level 99.9 %
     Extraction speed 4.3 X
     Track quality 100.0 %
     Test CRC F1E6BF1A
     Copy CRC F1E6BF1A
     Accurately ripped (confidence 1)  [128FF72F]  (AR v2)
     Copy OK

Track  8

     Filename E:\Nightwish - Decades (Live In Buenos Aires 2 CD 2019)[FLAC]-Naftamusic\CD 1\08 - Sacrament Of Wilderness.wav

     Peak level 100.0 %
     Extraction speed 4.5 X
     Track quality 100.0 %
     Test CRC CC58CE87
     Copy CRC CC58CE87
     Accurately ripped (confidence 1)  [296A2329]  (AR v2)
     Copy OK

Track  9

     Filename E:\Nightwish - Decades (Live In Buenos Aires 2 CD 2019)[FLAC]-Naftamusic\CD 1\09 - Deep Silent Complete.wav

     Peak level 100.0 %
     Extraction speed 3.7 X
     Track quality 99.9 %
     Test CRC C201895B
     Copy CRC C201895B
     Accurately ripped (confidence 1)  [989987FF]  (AR v2)
     Copy OK

Track 10

     Filename E:\Nightwish - Decades (Live In Buenos Aires 2 CD 2019)[FLAC]-Naftamusic\CD 1\10 - Dead Boy´s Poem.wav

     Peak level 100.0 %
     Extraction speed 5.1 X
     Track quality 100.0 %
     Test CRC EA0A7B92
     Copy CRC EA0A7B92
     Accurately ripped (confidence 1)  [4C3FD785]  (AR v2)
     Copy OK

Track 11

     Filename E:\Nightwish - Decades (Live In Buenos Aires 2 CD 2019)[FLAC]-Naftamusic\CD 1\11 - Elvenjig.wav

     Peak level 99.7 %
     Extraction speed 4.8 X
     Track quality 100.0 %
     Test CRC 478FC185
     Copy CRC 478FC185
     Accurately ripped (confidence 1)  [3F9D55FB]  (AR v2)
     Copy OK

Track 12

     Filename E:\Nightwish - Decades (Live In Buenos Aires 2 CD 2019)[FLAC]-Naftamusic\CD 1\12 - Elvenpath.wav

     Peak level 99.8 %
     Extraction speed 4.5 X
     Track quality 99.9 %
     Test CRC CFE2E071
     Copy CRC CFE2E071
     Accurately ripped (confidence 1)  [08B0A832]  (AR v2)
     Copy OK

Track 13

     Filename E:\Nightwish - Decades (Live In Buenos Aires 2 CD 2019)[FLAC]-Naftamusic\CD 1\13 - I Want My Tears Back.wav

     Peak level 100.0 %
     Extraction speed 5.6 X
     Track quality 100.0 %
     Test CRC 11557B5A
     Copy CRC 11557B5A
     Accurately ripped (confidence 1)  [1F7A9127]  (AR v2)
     Copy OK

All tracks accurately ripped

No errors occurred

End of status report

Код:

Exact Audio Copy V1.3 from 2. September 2016

EAC extraction logfile from 13. January 2020, 17:24

Nightwish / Decades (Live In Buenos Aires)

Used drive  : PLEXTOR PX-891SAF PLUS   Adapter: 1  ID: 0

Read mode               : Secure
Utilize accurate stream : Yes
Defeat audio cache      : Yes
Make use of C2 pointers : No

Read offset correction                      : 6
Overread into Lead-In and Lead-Out          : No
Fill up missing offset samples with silence : Yes
Delete leading and trailing silent blocks   : No
Null samples used in CRC calculations       : Yes
Used interface                              : Native Win32 interface for Win NT & 2000
Gap handling                                : Appended to previous track

Used output format              : User Defined Encoder
Selected bitrate                : 1024 kBit/s
Quality                         : High
Add ID3 tag                     : No
Command line compressor         : C:\Program Files (x86)\Exact Audio Copy\Flac\flac.exe
Additional command line options : -0 -V -T "ARTIST=%artist%" -T "TITLE=%title%" -T "ALBUM=%albumtitle%" -T "DATE=%year%" -T "TRACKNUMBER=%tracknr%" -T "TOTALTRACKS=%numtracks%" -T "GENRE=%genre%" -T "COMMENT=" %source%

TOC of the extracted CD

     Track |   Start  |  Length  | Start sector | End sector
    ---------------------------------------------------------
        1  |  0:00.00 |  4:41.69 |         0    |    21143
        2  |  4:41.69 |  6:07.22 |     21144    |    48690
        3  | 10:49.16 |  4:17.54 |     48691    |    68019
        4  | 15:06.70 |  4:56.02 |     68020    |    90221
        5  | 20:02.72 |  4:54.70 |     90222    |   112341
        6  | 24:57.67 |  5:12.07 |    112342    |   135748
        7  | 30:09.74 | 16:59.36 |    135749    |   212209
        8  | 47:09.35 | 11:55.07 |    212210    |   265841

Track  1

     Filename E:\Nightwish - Decades (Live In Buenos Aires 2 CD 2019)[FLAC]-Naftamusic\CD 2\01 - Amaranth.wav

     Pre-gap length  0:00:02.00

     Peak level 100.0 %
     Extraction speed 2.7 X
     Track quality 100.0 %
     Test CRC 96FEB656
     Copy CRC 96FEB656
     Accurately ripped (confidence 7)  [2AB15A89]  (AR v2)
     Copy OK

Track  2

     Filename E:\Nightwish - Decades (Live In Buenos Aires 2 CD 2019)[FLAC]-Naftamusic\CD 2\02 - The Carpenter.wav

     Peak level 99.9 %
     Extraction speed 3.2 X
     Track quality 100.0 %
     Test CRC 499064E7
     Copy CRC 499064E7
     Accurately ripped (confidence 7)  [861FF134]  (AR v2)
     Copy OK

Track  3

     Filename E:\Nightwish - Decades (Live In Buenos Aires 2 CD 2019)[FLAC]-Naftamusic\CD 2\03 - The Kinslayer.wav

     Peak level 100.0 %
     Extraction speed 3.4 X
     Track quality 100.0 %
     Test CRC C1957C80
     Copy CRC C1957C80
     Accurately ripped (confidence 7)  [96D6BB84]  (AR v2)
     Copy OK

Track  4

     Filename E:\Nightwish - Decades (Live In Buenos Aires 2 CD 2019)[FLAC]-Naftamusic\CD 2\04 - Devil & The Deep Dark Ocean.wav

     Peak level 100.0 %
     Extraction speed 3.7 X
     Track quality 100.0 %
     Test CRC E5F3A7D3
     Copy CRC E5F3A7D3
     Accurately ripped (confidence 7)  [48913F0A]  (AR v2)
     Copy OK

Track  5

     Filename E:\Nightwish - Decades (Live In Buenos Aires 2 CD 2019)[FLAC]-Naftamusic\CD 2\05 - Nemo.wav

     Peak level 100.0 %
     Extraction speed 4.0 X
     Track quality 100.0 %
     Test CRC 3A0EF11C
     Copy CRC 3A0EF11C
     Accurately ripped (confidence 7)  [6BB0C382]  (AR v2)
     Copy OK

Track  6

     Filename E:\Nightwish - Decades (Live In Buenos Aires 2 CD 2019)[FLAC]-Naftamusic\CD 2\06 - Slaying The Dreamer.wav

     Peak level 100.0 %
     Extraction speed 3.6 X
     Track quality 99.9 %
     Test CRC 32342897
     Copy CRC 32342897
     Accurately ripped (confidence 7)  [76A3D912]  (AR v2)
     Copy OK

Track  7

     Filename E:\Nightwish - Decades (Live In Buenos Aires 2 CD 2019)[FLAC]-Naftamusic\CD 2\07 - The Greatest Show On Earth.wav

     Peak level 100.0 %
     Extraction speed 5.2 X
     Track quality 100.0 %
     Test CRC 56C2F75E
     Copy CRC 56C2F75E
     Accurately ripped (confidence 7)  [D728ACE4]  (AR v2)
     Copy OK

Track  8

     Filename E:\Nightwish - Decades (Live In Buenos Aires 2 CD 2019)[FLAC]-Naftamusic\CD 2\08 - Ghost Love Score.wav

     Peak level 99.9 %
     Extraction speed 5.7 X
     Track quality 100.0 %
     Test CRC 25F1C531
     Copy CRC 25F1C531
     Accurately ripped (confidence 7)  [A7C8554C]  (AR v2)
     Copy OK

All tracks accurately ripped

No errors occurred

End of status report

Код:

REM GENRE "Symphonic Metal"
REM DATE 2019
TITLE "Decades (Live In Buenos Aires)"
FILE "01 - Swanheart.flac" WAVE
  TRACK 01 AUDIO
    PERFORMER "Nightwish"
    TITLE "Swanheart"
    INDEX 01 00:00:00
FILE "02 - End Of All Hope.flac" WAVE
  TRACK 02 AUDIO
    PERFORMER "Nightwish"
    TITLE "End Of All Hope"
    INDEX 01 00:00:00
FILE "03 - Wish I Had An Angel.flac" WAVE
  TRACK 03 AUDIO
    PERFORMER "Nightwish"
    TITLE "Wish I Had An Angel"
    INDEX 01 00:00:00
FILE "04 - 10th Man Down.flac" WAVE
  TRACK 04 AUDIO
    PERFORMER "Nightwish"
    TITLE "10th Man Down"
    INDEX 01 00:00:00
FILE "05 - Come Cover Me.flac" WAVE
  TRACK 05 AUDIO
    PERFORMER "Nightwish"
    TITLE "Come Cover Me"
    INDEX 01 00:00:00
FILE "06 - Gethsemane.flac" WAVE
  TRACK 06 AUDIO
    PERFORMER "Nightwish"
    TITLE "Gethsemane"
    INDEX 01 00:00:00
FILE "07 - Elan.flac" WAVE
  TRACK 07 AUDIO
    PERFORMER "Nightwish"
    TITLE "Elan"
    INDEX 01 00:00:00
FILE "08 - Sacrament Of Wilderness.flac" WAVE
  TRACK 08 AUDIO
    PERFORMER "Nightwish"
    TITLE "Sacrament Of Wilderness"
    INDEX 01 00:00:00
FILE "09 - Deep Silent Complete.flac" WAVE
  TRACK 09 AUDIO
    PERFORMER "Nightwish"
    TITLE "Deep Silent Complete"
    INDEX 01 00:00:00
FILE "10 - Dead Boy´s Poem.flac" WAVE
  TRACK 10 AUDIO
    PERFORMER "Nightwish"
    TITLE "Dead Boy´s Poem"
    INDEX 01 00:00:00
FILE "11 - Elvenjig.flac" WAVE
  TRACK 11 AUDIO
    PERFORMER "Nightwish"
    TITLE "Elvenjig"
    INDEX 01 00:00:00
FILE "12 - Elvenpath.flac" WAVE
  TRACK 12 AUDIO
    PERFORMER "Nightwish"
    TITLE "Elvenpath"
    INDEX 01 00:00:00
FILE "13 - I Want My Tears Back.flac" WAVE
  TRACK 13 AUDIO
    PERFORMER "Nightwish"
    TITLE "I Want My Tears Back"
    INDEX 01 00:00:00

Код:

REM GENRE "Symphonic Metal"
REM DATE 2019
TITLE "Decades (Live In Buenos Aires)"
FILE "01 - Amaranth.flac" WAVE
  TRACK 01 AUDIO
    PERFORMER "Nightwish"
    TITLE "Amaranth"
    INDEX 01 00:00:00
FILE "02 - The Carpenter.flac" WAVE
  TRACK 02 AUDIO
    PERFORMER "Nightwish"
    TITLE "The Carpenter"
    INDEX 01 00:00:00
FILE "03 - The Kinslayer.flac" WAVE
  TRACK 03 AUDIO
    PERFORMER "Nightwish"
    TITLE "The Kinslayer"
    INDEX 01 00:00:00
FILE "04 - Devil & The Deep Dark Ocean.flac" WAVE
  TRACK 04 AUDIO
    PERFORMER "Nightwish"
    TITLE "Devil & The Deep Dark Ocean"
    INDEX 01 00:00:00
FILE "05 - Nemo.flac" WAVE
  TRACK 05 AUDIO
    PERFORMER "Nightwish"
    TITLE "Nemo"
    INDEX 01 00:00:00
FILE "06 - Slaying The Dreamer.flac" WAVE
  TRACK 06 AUDIO
    PERFORMER "Nightwish"
    TITLE "Slaying The Dreamer"
    INDEX 01 00:00:00
FILE "07 - The Greatest Show On Earth.flac" WAVE
  TRACK 07 AUDIO
    PERFORMER "Nightwish"
    TITLE "The Greatest Show On Earth"
    INDEX 01 00:00:00
FILE "08 - Ghost Love Score.flac" WAVE
  TRACK 08 AUDIO
    PERFORMER "Nightwish"
    TITLE "Ghost Love Score"
    INDEX 01 00:00:00






раздаю с 10:00 до 02:00 ночи pb.wtf



Скачать Nightwish - Decades: Live In Buenos Aires через торрент https://i111.fastpic.ru/big/2020/0415/fe/d8b280005afadd0dbb8a00ef028e06fe.png Скачать фильм Nightwish - Decades: Live In Buenos Aires через торрент бесплантно в хорошем качестве ... 5 10 1
Торрент: Зарегистрирован [2020-04-16 09:00] · скачан: 14 раз
Статус: √ проверено
Размер: 951 MB
Как cкачать? Как скачать Nightwish - Decades: Live In Buenos Aires через торрент | qTorrent

28-11-2019 20:33  

Отключить всю рекламу на сайте

    Дорогой пользователь! Огромная просьба, поблагодарите релизера, оцените раздачу и оставьте свои комментарий, если Вы скачали Nightwish - Decades: Live In Buenos Aires через торрент бесплатно! Внесите свою лепту в развитие PiratBit!
    Комментировать посты могут только пользователи прошедшие не сложную регистрацию
    Показать сообщения:    

    Nightwish - Decades: Live In Buenos Aires через торрент
    Скачать бесплатно Nightwish - Decades: Live In Buenos Aires
    Nightwish - Decades: Live In Buenos Aires скачать торрент
    Nightwish - Decades: Live In Buenos Aires смотреть онлайн
    Cкачать фильм Nightwish - Decades: Live In Buenos Aires бесплатно
    Nightwish - Decades: Live In Buenos Aires скачать торрент в хорошем качестве
    Nightwish - Decades: Live In Buenos Aires смотреть онлайн бесплатно в хорошем качестве


    Вы не можете начинать темы
    Вы не можете отвечать на сообщения
    Вы не можете редактировать свои сообщения
    Вы не можете удалять свои сообщения
    Вы не можете голосовать в опросах
    Вы не можете прикреплять файлы к сообщениям
    Вы можете скачивать файлы