2 сезон

iTunes

MVO

1

2 сезон

iTunes

iTunes

1 сезон

RePack

30

Ultimate

ВАЖНО

ИГРА 18+

pack

RePack

MK11
pack

Легкие деньги

RePack

jed

RePack

fifa19

RePack

RDR2

RePack

NEED FOR SPEED™ PAYBACK

4 сезон

9 сезон

Бесстыжие 9 сезон

Все сериалы

все сериалы на PB.wtf

RePack

FAR CRY 5

Anonymous, доброй ночи, мы не успеваем собрать деньги на оплату серверов за декабрь и январь, помогите нам пожалуйста в это трудное время. В качестве благодарности мы отключим Вам всю рекламу на сайте (укажите свой ник в строку Ваше имя)!

×
  
Magnet ссылка

Пираты Карибского моря: Мертвецы не рассказывают сказки / Pirates of the Caribbean: Dead Men Tell No Tales (Хоаким Роннинг, Эспен Сандберг) [2017 г., Фэнтези, боевик, комедия, приключения, BDRip 720p / 60 FPS, Дубляж]от R.G. HD-Films pb.wtf

Пираты Карибского моря: Мертвецы не рассказывают сказки через торрент pb.wtf

Раздают: 3 [ 0 KB/s ]
Размер: 4.71 GB | Добавлен: 9 мес. назад | Торрент скачан:138 раз
Скачать  

16-04-2020 11:27 Пираты Карибского моря: Мертвецы не рассказывают сказки Скачать торрент  

Пираты Карибского моря: Мертвецы не рассказывают сказки / Pirates of the Caribbean: Dead Men Tell No Tales
Год выпуска: : 2017
Страна: : США
Жанр: : Фэнтези, боевик, комедия, приключения
Продолжительность: 02:09:07
Перевод: Дубляж
Субтитры: Russian, English

Режиссер: Хоаким Роннинг, Эспен Сандберг

Бюджет: $230 000 000
Премьера в мире: 11 мая 2017

rating

В ролях: Джонни Депп, Кира Найтли, Кая Скоделарио, Дэвид Уэнэм, Орландо Блум, Джеффри Раш, Брентон Туэйтс, Хавьер Бардем, Голшифте Фарахани, Стивен Грэм


Сюжет фильма: Капитан Джек Воробей как всегда не может и дня прожить, не попав в какую-нибудь передрягу. Причем в основном ему даже и усилий прикладывать не приходится. Так случилось и в этот раз. Джек обнаруживает, что за ним охотится его старый недруг, ужасное призрачное существо в получеловеческом обличии по имени Капитан Салазар, в команде у которого такая же нечисть, как он сам. Им только что удалось сбежать из Дьявольского треугольника, и они первым делом намерены уничтожить всех пиратов, включая Джека. Единственным шансом для спасения остается могущественный артефакт — трезубец Посейдона, дарующий своему обладателю полный контроль над морями. Успеет ли Джек найти его и сразиться с Салазаром за звание самого могущественного пирата всех морей?

Качество видео: BDRip 720p / 60 FPS
Формат: MKV
Видео кодек: H.264
Аудио кодек: AC3
Видео : x264, 1280 x 536 ( 2,40:1 ), 4832 kbps, 60,000 fps, ( 0.117 bpp)
Аудио : Русский, AC-3, 48.0 KHz, 6 ch, 384 Kbps
Релиз от:

скриншот   скриншот   скриншот   скриншот   скриншот   скриншот  Автор рипа: slaventi-69
Общее
Уникальный идентификатор : 20933889065581132031680611539657224771 (0xFBFB86AD9608767AA94D04E77E8F243)
Полное имя : F:\Pirates.of.the.Caribbean.Dead.Men.Tell.No.Tales.(2017).BDRip.720p.(60 Fps).mkv
Формат : Matroska
Версия формата : Version 4
Размер файла : 4,71 Гбайт
Продолжительность : 2 ч. 9 м.
Общий поток : 5220 Кбит/сек
Название фильма : Пираты Карибского моря: Мертвецы не рассказывают сказки / Pirates of the Caribbean: Dead Men Tell No Tales (2017) BDRip 720p (60 Fps)
Дата кодирования : UTC 2020-04-14 16:00:37
Программа кодирования : mkvmerge v42.0.0 ('Overtime') 64-bit
Библиотека кодирования : libebml v1.3.10 + libmatroska v1.5.2

Видео
Идентификатор : 1
Формат : AVC
Формат/Информация : Advanced Video Codec
Профиль формата : High@L4.1
Настройки формата : CABAC / 9 Ref Frames
Параметр CABAC формата : Да
Параметр RefFrames формата : 9 кадров
Идентификатор кодека : V_MPEG4/ISO/AVC
Продолжительность : 2 ч. 9 м.
Битрейт : 4832 Кбит/сек
Ширина : 1280 пикселей
Высота : 536 пикселей
Соотношение сторон : 2,40:1
Режим частоты кадров : Постоянный
Частота кадров : 60,000 кадров/сек
Цветовое пространство : YUV
Субдискретизация насыщенности : 4:2:0
Битовая глубина : 8 бит
Тип развёртки : Прогрессивная
Бит/(Пиксели*Кадры) : 0.117
Размер потока : 4,36 Гбайт (93%)
Заголовок : slaventi-69 ( R.G. HD-Films | 60 fps )
Библиотека кодирования : x264 core 130 r2273 b3065e6
Настройки программы : cabac=1 / ref=9 / deblock=1:0:0 / analyse=0x3:0x133 / me=umh / subme=9 / psy=1 / psy_rd=1.00:0.00 / mixed_ref=1 / me_range=26 / chroma_me=1 / trellis=2 / 8x8dct=1 / cqm=0 / deadzone=21,11 / fast_pskip=0 / chroma_qp_offset=-2 / threads=8 / lookahead_threads=1 / sliced_threads=0 / nr=0 / decimate=1 / interlaced=0 / bluray_compat=0 / constrained_intra=0 / bframes=5 / b_pyramid=2 / b_adapt=2 / b_bias=0 / direct=3 / weightb=1 / open_gop=0 / weightp=2 / keyint=250 / keyint_min=25 / scenecut=40 / intra_refresh=0 / rc_lookahead=50 / rc=crf / mbtree=1 / crf=17.5 / qcomp=0.60 / qpmin=0 / qpmax=69 / qpstep=4 / ip_ratio=1.40 / aq=1:1.00
Язык : English
Default : Да
Forced : Нет

Аудио
Идентификатор : 2
Формат : AC-3
Формат/Информация : Audio Coding 3
Коммерческое название : Dolby Digital
Идентификатор кодека : A_AC3
Продолжительность : 2 ч. 9 м.
Вид битрейта : Постоянный
Битрейт : 384 Кбит/сек
Каналы : 6 каналов
Channel layout : L R C LFE Ls Rs
Частота : 48,0 КГц
Частота кадров : 31,250 кадров/сек (1536 SPF)
Битовая глубина : 16 бит
Метод сжатия : С потерями
Размер потока : 355 Мбайт (7%)
Заголовок : Dub
Язык : Russian
ServiceKind/String : Complete Main
Default : Да
Forced : Нет

Текст #1
Идентификатор : 3
Формат : UTF-8
Идентификатор кодека : S_TEXT/UTF8
Идентификатор кодека/Информация : UTF-8 Plain Text
Продолжительность : 1 ч. 59 м.
Битрейт : 0 бит/сек
ElementCount : 17
Размер потока : 698 байт (0%)
Заголовок : Rus forced
Язык : Russian
Default : Нет
Forced : Да

Текст #2
Идентификатор : 4
Формат : UTF-8
Идентификатор кодека : S_TEXT/UTF8
Идентификатор кодека/Информация : UTF-8 Plain Text
Продолжительность : 1 ч. 59 м.
Битрейт : 59 бит/сек
ElementCount : 1312
Размер потока : 51,7 Кбайт (0%)
Заголовок : Rus full
Язык : Russian
Default : Нет
Forced : Нет

Текст #3
Идентификатор : 5
Формат : UTF-8
Идентификатор кодека : S_TEXT/UTF8
Идентификатор кодека/Информация : UTF-8 Plain Text
Продолжительность : 1 ч. 55 м.
Битрейт : 45 бит/сек
ElementCount : 1428
Размер потока : 38,2 Кбайт (0%)
Заголовок : Eng full
Язык : English
Default : Нет
Forced : Нет

Меню
00:00:00.000 : :Chapter 01
00:05:49.515 : :Chapter 02
00:08:34.222 : :Chapter 03
00:13:40.820 : :Chapter 04
00:16:29.154 : :Chapter 05
00:22:33.852 : :Chapter 06
00:25:19.267 : :Chapter 07
00:28:06.101 : :Chapter 08
00:31:41.774 : :Chapter 09
00:33:44.814 : :Chapter 10
00:37:02.053 : :Chapter 11
00:42:27.711 : :Chapter 12
00:49:09.071 : :Chapter 13
00:54:00.278 : :Chapter 14
00:57:19.394 : :Chapter 15
01:00:38.718 : :Chapter 16
01:08:29.939 : :Chapter 17
01:11:57.021 : :Chapter 18
01:16:50.939 : :Chapter 19
01:19:27.471 : :Chapter 20
01:25:04.808 : :Chapter 21
01:27:42.173 : :Chapter 22
01:31:43.789 : :Chapter 23
01:38:22.813 : :Chapter 24
01:42:36.775 : :Chapter 25
01:47:23.562 : :Chapter 26
01:52:58.688 : :Chapter 27
01:59:09.934 : :Chapter 28

Просьба к переливающим на другие сайты, в оформлении указывайте пожалуйста авторство группы R.G. HD-Films pb.wtf



Скачать Пираты Карибского моря: Мертвецы не рассказывают сказки через торрент http://c.radikal.ru/c41/2002/ce/e3eea0a11701.png Скачать фильм Пираты Карибского моря: Мертвецы не рассказывают сказки через торрент бесплантно в хорошем качестве В ролях: Джонни Депп, Кира Найтли, Кая Скоделарио, Дэвид Уэнэм, Орландо Блум, Джеффри Раш, Брентон Туэйтс, Хавьер Бардем, Голшифте ... 10 10 6
Торрент: Зарегистрирован [2020-04-16 11:27] · скачан: 138 раз
Статус: √ проверено
Размер: 4.71 GB
Как cкачать? Как скачать Пираты Карибского моря: Мертвецы не рассказывают сказки через торрент | UTorrent

28-11-2019 20:33  

Отключить всю рекламу на сайте

17-04-2020 14:17 Пираты Карибского моря: Мертвецы не рассказывают сказки Скачать торрент  

О да! Спасибо огромное! Коллекция дополнена!pb.wtf



    Дорогой пользователь! Огромная просьба, поблагодарите релизера, оцените раздачу и оставьте свои комментарий, если Вы скачали Пираты Карибского моря: Мертвецы не рассказывают сказки через торрент бесплатно! Внесите свою лепту в развитие PiratBit!
    Комментировать посты могут только пользователи прошедшие не сложную регистрацию
    Показать сообщения:    

    Пираты Карибского моря: Мертвецы не рассказывают сказки через торрент
    Скачать бесплатно Пираты Карибского моря: Мертвецы не рассказывают сказки
    Пираты Карибского моря: Мертвецы не рассказывают сказки скачать торрент
    Пираты Карибского моря: Мертвецы не рассказывают сказки смотреть онлайн
    Cкачать фильм Пираты Карибского моря: Мертвецы не рассказывают сказки бесплатно
    Пираты Карибского моря: Мертвецы не рассказывают сказки скачать торрент в хорошем качестве
    Пираты Карибского моря: Мертвецы не рассказывают сказки смотреть онлайн бесплатно в хорошем качестве


    Вы не можете начинать темы
    Вы не можете отвечать на сообщения
    Вы не можете редактировать свои сообщения
    Вы не можете удалять свои сообщения
    Вы не можете голосовать в опросах
    Вы не можете прикреплять файлы к сообщениям
    Вы можете скачивать файлы