Всегда рабочее зеркало без VPN и Proxy просто перед .vidak.icu напиши любое слово или цифру, Пример http://jxh.vidak.icu

>

7.4

iTunes

7.4

2 сезон

6.6

iTunes

1

7.4

2 сезон

7.2

iTunes

6.0

MVO

13

6.1

iTunes

8.3

Пиратка

30

ULTIMATE

pack

9.9

Лицензия

ВАЖНО

ИГРА 18+

pack

7.3

RePack

MK11

7.7

RePack

jed

7.8

RePack

fifa19

8.5

RePack

RDR2

RePack

NEED FOR SPEED™ PAYBACK

1 сезон

9 сезон

Бесстыжие 9 сезон

Все сериалы

все сериалы на PB.wtf

RePack

FAR CRY 5

Anonymous, добрый день, мы катастрофически не успеваем собрать деньги на оплату серверов, помогите нам пожалуйста 5,10,15р., для нас важна любая помощь . В качестве благодарности мы отключим Вам всю рекламу на сайте (укажите свой ник в строку Ваше имя)!

×
  
Magnet ссылка

Шерлок Холмс: Игра теней / Sherlock Holmes: A Game of Shadows (Гай Ричи) [2011, боевик, триллер, криминал, детектив, приключения, WEB-DL 1080p] [AVO] (Дмитрий "Гоблин" Пучков) pb.wtf

Шерлок Холмс: Игра теней через торрент pb.wtf

Размер: 2.19 GB | Добавлен: 1 год 9 мес. назад | Торрент скачан:136 раз
Смотреть онлайн Шерлок Холмс: Игра теней | Скачать    Ребята, помогите собрать деньги на оплату серверов!!!

17-04-2020 08:38 Шерлок Холмс: Игра теней Скачать торрент  

Шерлок Холмс: Игра теней / Sherlock Holmes: A Game of Shadows
Год выхода: 2011
Жанр: боевик, триллер, криминал, детектив, приключения
Выпущено: США
Продолжительность: 02:08:44
Перевод: Авторский (одноголосный) Дмитрий "Гоблин" Пучков

Режиссер: Гай Ричи / Guy Ritchie

В ролях: Роберт Дауни мл., Джуд Лоу, Нуми Рапас, Джаред Харрис, Пол Андерсон, Стивен Фрай, Рэйчел МакАдамс, Келли Райлли, Джеральдин Джеймс, Эдди Марсан

Описание: 1891 год. В Вене и Страсбурге проходит серия терактов, организованных анархистами или националистами, а по всей Европе происходят таинственные убийства. Шерлок Холмс считает, что за всем этим стоит профессор Джеймс Мориарти - математический гений, автор знаменитых лекций и трудов.

rating>>>Sample<<<

Качество: WEB-DL (1080p)
Формат: MKV
Видео кодек: AVC
Аудио кодек: AAC
Видео: MPEG-4 AVC, 2338 Кбит/с, 1920x1080, 25.000 Кадр/с
Аудио: AAC, 2/0 (L,R) ch, ~192.00 kbps avg

Цитата:

Авторский перевод Дмитрия "Гоблина" Пучкова (2020 г.)

Общее
Уникальный идентификатор : 272311847913123829131735914211480896545 (0xCCDD5AAD8DF0AE0E355F49579FC70421)
Полное имя : D:\Фильмы\Перевод Гоблина c WINK\15 - Шерлок Холмс. Игра теней ''Sherlock Holmes. A Game of Shadows'' (WEB-DL 1080p. (2011)).mkv
Формат : Matroska
Версия формата : Version 4
Размер файла : 2,19 Гбайт
Продолжительность : 2 ч. 3 м.
Общий поток : 2 533 Кбит/сек
Дата кодирования : UTC 2020-04-17 05:54:27
Программа кодирования : mkvmerge v45.0.0 ('Heaven in Pennies') 64-bit
Библиотека кодирования : libebml v1.3.10 + libmatroska v1.5.2
Обложка : Yes
Attachments : cover.jpg

Видео
Идентификатор : 1
Формат : AVC
Формат/Информация : Advanced Video Codec
Профиль формата : High@L4
Настройки формата : CABAC / 4 Ref Frames
Параметр CABAC формата : Да
Параметр RefFrames формата : 4 кадра
Идентификатор кодека : V_MPEG4/ISO/AVC
Продолжительность : 2 ч. 3 м.
Битрейт : 2 338 Кбит/сек
Номинальный битрейт : 3 072 Кбит/сек
Ширина : 1 920 пикселей
Высота : 1 080 пикселей
Соотношение сторон : 16:9
Режим частоты кадров : Постоянный
Частота кадров : 25,000 кадров/сек
Цветовое пространство : YUV
Субдискретизация насыщенности : 4:2:0
Битовая глубина : 8 бит
Тип развёртки : Прогрессивная
Бит/(Пиксели*Кадры) : 0.045
Размер потока : 2,02 Гбайт (92%)
Библиотека кодирования : x264 core 146 r2538 121396c
Настройки программы : cabac=1 / ref=3 / deblock=1:0:0 / analyse=0x3:0x113 / me=hex / subme=7 / psy=1 / psy_rd=1.00:0.00 / mixed_ref=1 / me_range=16 / chroma_me=1 / trellis=1 / 8x8dct=1 / cqm=0 / deadzone=21,11 / fast_pskip=1 / chroma_qp_offset=-2 / threads=12 / lookahead_threads=2 / sliced_threads=0 / nr=0 / decimate=1 / interlaced=0 / bluray_compat=0 / constrained_intra=0 / bframes=3 / b_pyramid=2 / b_adapt=1 / b_bias=0 / direct=1 / weightb=1 / open_gop=0 / weightp=2 / keyint=75 / keyint_min=38 / scenecut=0 / intra_refresh=0 / rc_lookahead=40 / rc=cbr / mbtree=1 / bitrate=3072 / ratetol=1.0 / qcomp=0.60 / qpmin=0 / qpmax=69 / qpstep=4 / vbv_maxrate=3072 / vbv_bufsize=640 / nal_hrd=none / filler=0 / ip_ratio=1.40 / aq=1:1.00
Язык : Russian
Default : Да
Forced : Нет

Аудио
Идентификатор : 2
Формат : AAC LC
Формат/Информация : Advanced Audio Codec Low Complexity
Идентификатор кодека : A_AAC-2
Продолжительность : 2 ч. 3 м.
Битрейт : 192 Кбит/сек
Каналы : 2 канала
Channel layout : L R
Частота : 48,0 КГц
Частота кадров : 46,875 кадров/сек (1024 SPF)
Метод сжатия : С потерями
Задержка видео : 64 мс.
Размер потока : 170 Мбайт (8%)
Заголовок : Д. Пучков (2020)
Язык : Russian
Default : Да
Forced : Нет
скриншот  скриншот  скриншот  
pb.wtf



Скачать Шерлок Холмс: Игра теней через торрент https://i111.fastpic.ru/big/2020/0417/2e/f0cb6216809a34993bc049085536582e.jpg Скачать, смотреть онлайн Шерлок Холмс: Игра теней бесплантно в хорошем качестве Описание: 1891 год. В Вене и Страсбурге проходит серия терактов, организованных анархистами или националистами, а по всей Европе ... 10 10 10
Торрент: Зарегистрирован [2020-04-17 08:38] · скачан: 136 раз
Статус: T временная
Размер: 2.19 GB
Как cкачать? Как скачать Шерлок Холмс: Игра теней через торрент | UTorrent

% Раздел Тема Автор DL S | L
Фильмы [HD 720p, 1080p] (Хороший звук DUB, MVO) [ 6.95 GB ] Шерлок Холмс: Игра теней / Sherlock Holmes: A Game of Shadows [2011 BDRip 720p] DUB [ лицензия ] NarutoSasuke Скачать
1 | 0
Ultra HD (UHD: 2K, 4K, 8K) — видео сверхвысокой чёткости [ 63.66 GB ] Шерлок Холмс: Игра теней / Sherlock Holmes: A Game of Shadows [2011 UHD BDRemux 2160p] DUB [] +4xAVO bober100 Скачать
2 | 0
# Фильмы (Blu-ray, BD-Remux, HDDVD) [ 21.47 GB ] Шерлок Холмс: Игра теней / Sherlock Holmes: A Game of Shadows [2011 BDRemux 1080p] DUB sheker187 Скачать
1 | 0
Ultra HD (UHD: 2K, 4K, 8K) — видео сверхвысокой чёткости [ 41.63 GB ] Шерлок Холмс: Игра теней / Sherlock Holmes: A Game of Shadows [2011 UHD WEBRip 2160p] DUB + 2xAVO sheker187 Скачать
1 | 0
Фильмы [HD 720p, 1080p] (Хороший звук DUB, MVO) [ 7.75 GB ] Шерлок Холмс: Игра теней / Sherlock Holmes: A Game of Shadows [2011 BDRip 720p] DUB 2xAVO + Original + Sub _denis_100 Скачать
1 | 0
Фильмы (DVD фильмы) [ 6.35 GB ] Шерлок Холмс: Игра теней / Sherlock Holmes: A Game of Shadows [2011 DVD9] R5 voovaz Скачать
1 | 0
Фильмы с авторской озвучкой [ 2.13 GB ] Шерлок Холмс: Игра теней / Sherlock Holmes: A Game of Shadows [2011 BDRip] [AVO] + [AVO] killermax2013 Скачать
1 | 0

28-11-2019 20:33  

Отключить всю рекламу на сайте

    Дорогой пользователь! Огромная просьба, поблагодарите релизера, оцените раздачу и оставьте свои комментарий, если Вы скачали Шерлок Холмс: Игра теней через торрент бесплатно!
    Комментировать посты могут только пользователи прошедшие не сложную регистрацию
    Показать сообщения:    

    Шерлок Холмс: Игра теней через торрент
    Скачать бесплатно Шерлок Холмс: Игра теней
    Шерлок Холмс: Игра теней скачать торрент
    Шерлок Холмс: Игра теней смотреть онлайн
    Cкачать фильм Шерлок Холмс: Игра теней бесплатно
    Шерлок Холмс: Игра теней скачать торрент в хорошем качестве
    Шерлок Холмс: Игра теней смотреть онлайн бесплатно в хорошем качестве


    Вы не можете начинать темы
    Вы не можете отвечать на сообщения
    Вы не можете редактировать свои сообщения
    Вы не можете удалять свои сообщения
    Вы не можете голосовать в опросах
    Вы не можете прикреплять файлы к сообщениям
    Вы можете скачивать файлы