2 сезон

iTunes

MVO

1

2 сезон

iTunes

iTunes

1 сезон

RePack

30

Ultimate

ВАЖНО

ИГРА 18+

pack

RePack

MK11
pack

Легкие деньги

RePack

jed

RePack

fifa19

RePack

RDR2

RePack

NEED FOR SPEED™ PAYBACK

4 сезон

9 сезон

Бесстыжие 9 сезон

Все сериалы

все сериалы на PB.wtf

RePack

FAR CRY 5

Anonymous, добрый день, мы не успеваем собрать деньги на оплату серверов за декабрь и январь, помогите нам пожалуйста в это трудное время. В качестве благодарности мы отключим Вам всю рекламу на сайте (укажите свой ник в строку Ваше имя)!

×
  
Magnet ссылка

Чем мы заняты в тени / Реальные упыри / What We Do in the Shadows / Сезон: 2 / Серии: 1-2 из 10 (Джемейн Клемент) [2020, комедия, ужасы, WEB-DL 720p] MVO [HDRezka Studio] pb.wtf

Чем мы заняты в тени через торрент pb.wtf

Размер: 1.93 GB | Добавлен: 8 мес. назад | Торрент скачан:25 раз
Скачать  

17-04-2020 13:30 Чем мы заняты в тени Скачать торрент  

Чем мы заняты в тени | Реальные упыри | What We Do in the Shadows
«***»
Производство: США
Год выпуска: 2020
Жанр: комедия, ужасы
Продолжительность: ~ 00:30:00 серия
Премьера (мир): 27 марта 2019
Перевод: Профессиональный (многоголосый закадровый) | |HDRezka Studio|
Субтитры: Русские (Forced), английские (SDH)

Режиссёр: Джемейн Клемент, Джейсон Уолинер, Тайка Вайтити

В ролях: Кайван Новак, Харви Гильен, Натасия Деметриу, Мэтт Берри, Марк Прокш, Крис Перфетти, Вероника Словиковска, Александра Хенриксон, Шиван Фэллон

Описание: Три главных героя делят дом, решают бытовые конфликты, ищут любовь — и свежую кровь, без которой им, вампирам, не прожить.



Качество видео: WEB-DL 720p
Формат: MKV

Видео: MPEG-4 AVC, ~ 5320 Кбит/с, 1280x720
Аудио Rus: AC-3, 48 kHz, 2 ch, 192 kbps |LostFilm|
Аудио Eng: AC-3, 48 kHz, 6 ch, 640 kbps |Original|
Общее
Уникальный идентификатор : 232872520842814459797651375583830685956 (0xAF319DB97D96F82AAA3C6E05BACB3904)
Полное имя : C:Чем мы заняты в тени. 2 сезон. 2020. EniaHD (WEB-DL 720p)\What.We.Do.in.the.Shadows.s02e01. Воскрешение.mkv
Формат : Matroska
Версия формата : Version 2
Размер файла : 1,00 Гбайт
Продолжительность : 22 м. 53 с.
Общий поток : 6281 Кбит/сек
Название фильма : Resurrection
Дата кодирования : UTC 2020-04-17 09:18:45
Программа кодирования : mkvmerge v6.9.1 ('Blue Panther') 32bit built on Apr 18 2014 18:15:44
Библиотека кодирования : libebml v1.3.0 + libmatroska v1.4.1

Видео
Идентификатор : 1
Формат : AVC
Формат/Информация : Advanced Video Codec
Профиль формата : High@L3.1
Настройки формата : CABAC / 4 Ref Frames
Параметр CABAC формата : Да
Параметр RefFrames формата : 4 кадра
Идентификатор кодека : V_MPEG4/ISO/AVC
Продолжительность : 22 м. 53 с.
Вид битрейта : Постоянный
Битрейт : 5324 Кбит/сек
Номинальный битрейт : 6000 Кбит/сек
Ширина : 1280 пикселей
Высота : 720 пикселей
Соотношение сторон : 16:9
Режим частоты кадров : Постоянный
Частота кадров : 23,976 (24000/1001) кадра/сек
Цветовое пространство : YUV
Субдискретизация насыщенности : 4:2:0
Битовая глубина : 8 бит
Тип развёртки : Прогрессивная
Бит/(Пиксели*Кадры) : 0.241
Размер потока : 872 Мбайт (85%)
Язык : English
Default : Да
Forced : Нет
Цветовой диапазон : Limited
Основные цвета : BT.709
Характеристики трансфера : BT.709
Коэффициенты матрицы : BT.709

Аудио #1
Идентификатор : 2
Формат : AC-3
Формат/Информация : Audio Coding 3
Коммерческое название : Dolby Digital
Идентификатор кодека : A_AC3
Продолжительность : 22 м. 53 с.
Вид битрейта : Постоянный
Битрейт : 192 Кбит/сек
Каналы : 2 канала
ChannelLayout : L R
Частота : 48,0 КГц
Частота кадров : 31,250 кадров/сек (1536 SPF)
Битовая глубина : 16 бит
Метод сжатия : С потерями
Размер потока : 31,4 Мбайт (3%)
Заголовок : HDRezka Studio
Язык : Russian
ServiceKind/String : Complete Main
Default : Да
Forced : Нет

Аудио #2
Идентификатор : 3
Формат : AC-3
Формат/Информация : Audio Coding 3
Коммерческое название : Dolby Digital
Идентификатор кодека : A_AC3
Продолжительность : 22 м. 53 с.
Вид битрейта : Постоянный
Битрейт : 640 Кбит/сек
Каналы : 6 каналов
ChannelLayout : L R C LFE Ls Rs
Частота : 48,0 КГц
Частота кадров : 31,250 кадров/сек (1536 SPF)
Битовая глубина : 16 бит
Метод сжатия : С потерями
Размер потока : 105 Мбайт (10%)
Язык : English
ServiceKind/String : Complete Main
Default : Нет
Forced : Нет

Текст #1
Идентификатор : 4
Формат : UTF-8
Идентификатор кодека : S_TEXT/UTF8
Идентификатор кодека/Информация : UTF-8 Plain Text
Заголовок : Forced
Язык : Russian
Default : Да
Forced : Да

Текст #2
Идентификатор : 5
Формат : UTF-8
Идентификатор кодека : S_TEXT/UTF8
Идентификатор кодека/Информация : UTF-8 Plain Text
Заголовок : SDH
Язык : English
Default : Нет
Forced : Нет
скриншот  скриншот  скриншот  скриншот  
Раздача ведётся путём добавления новых серий; при каждом добавлении создаётся новый торрент.
Чтобы начать докачку новой серии, пользователям необходимо сделать следующее:
1. остановить скачивание,
2. удалить старый торрент у себя из клиента (старые серии удалять не надо),
3. скачать новый торрент и запустить его у себя в клиенте вместо старого, при этом указать клиенту путь в старую папку, куда и должно происходить скачивание новых серий.

Ваш клиент при этом должен произвести хеширование (проверку) старой папки (если не производит сам - помогите ему сделать это), и будет докачивать только те серии которых у вас ещё нет. Старые серии при этом не удаляются, а продолжают раздаваться!

Eсли вы уже удалили старые серии, то предотвратить повторную закачку старых серий можно, отжав галочку в соответствующих местах при запуске нового торрента. По возможности, желательно не удалять старые серии как можно дольше, чтобы релизёр не столько продолжал раздавать старые серии, а смог сконцентрироваться на новых.

Совет для тех, кто не хочет ждать перехеширования:
Создайте ещё одну папку рядом с папкой сериала (рядом, а не в ней!!!). Каждую новую серию после удачной загрузки копируйте в новую папку так чтобы ваша основная папка всегда была пуста. Когда ваш новый торрент предложит вам закачать все файлы, выберете только последнюю. Для сидирования же укажите адрес новой папки.

Как закачать отдельный файл из торрента или докачать ранее пропущенные файлы торрента!
1. Открыть торрент
2. Снять галки с тех файлов торрента, которые мы не хотим закачивать. Оставляем только на нужных нам файлах (файле).
3. Нажать О.К.

В клиенте utorrent

Инструкция

1) Открыть торрент


2) Снять галки с тех файлов торрента, которые мы не хотим закачивать:

* либо вручную, снимая с каждого файла галку( скрин №1)
* либо, нажав кнопку "Снять метки (Select None)", сняв сразу со всех файлов(скрин №2)
№1

№2

Оставляем только на нужных нам файлах (файле).

3)Нажать О.К
Приятного просмотра!!!pb.wtf



Скачать Чем мы заняты в тени через торрент https://i4.imageban.ru/out/2020/04/19/0d1c7acfc3881575e5435cc3a9bc1d44.png Скачать фильм Чем мы заняты в тени через торрент бесплантно в хорошем качестве Описание: Три главных героя делят дом, решают бытовые конфликты, ищут любовь — и свежую кровь, без которой им, вампирам, не прожить. ... 10 10 2
Торрент: Зарегистрирован [2020-04-17 13:30] · скачан: 25 раз
Статус: √ проверено
Размер: 1.93 GB
Как cкачать? Как скачать Чем мы заняты в тени через торрент | UTorrent

% Раздел Тема Автор DL S | L
Зарубежные сериалы [ 1.59 GB ] Чем мы заняты в тени / Реальные упыри / What We Do in the Shadows / Сезон: 2 / Серии: 1-5 из 10 [2020 WEB-DLRip] MVO [NewStudio] bober100 Скачать
1 | 0
Зарубежные сериалы [ 18.25 GB ] Чем мы заняты в тени / Реальные упыри / What We Do in the Shadows / Сезон: 2 / Серии: 1-10 из 10 [2020 WEB-DL 1080p] 2xMVO [Lostfilm NewStudio] bober100 Скачать
1 | 0


Последний раз редактировалось: bober100 (2020-04-28 22:27), всего редактировалось 3 раз(а)

28-11-2019 20:33  

Отключить всю рекламу на сайте

17-04-2020 18:15 Чем мы заняты в тени Скачать торрент  

Это же реальные упыри?pb.wtf



    Дорогой пользователь! Огромная просьба, поблагодарите релизера, оцените раздачу и оставьте свои комментарий, если Вы скачали Чем мы заняты в тени через торрент бесплатно! Внесите свою лепту в развитие PiratBit!
    Комментировать посты могут только пользователи прошедшие не сложную регистрацию
    Показать сообщения:    

    Чем мы заняты в тени через торрент
    Скачать бесплатно Чем мы заняты в тени
    Чем мы заняты в тени скачать торрент
    Чем мы заняты в тени смотреть онлайн
    Cкачать фильм Чем мы заняты в тени бесплатно
    Чем мы заняты в тени скачать торрент в хорошем качестве
    Чем мы заняты в тени смотреть онлайн бесплатно в хорошем качестве


    Вы не можете начинать темы
    Вы не можете отвечать на сообщения
    Вы не можете редактировать свои сообщения
    Вы не можете удалять свои сообщения
    Вы не можете голосовать в опросах
    Вы не можете прикреплять файлы к сообщениям
    Вы можете скачивать файлы