Ссылка на приватное зеркало нашего сайта всего за 1$. Внимание количество ограничено!!!

2 сезон

iTunes

1 сезон

1

iTunes

iTunes

iTunes

1 сезон

RePack

30

ИГРА 18+

pack

ВАЖНО

!!Акция!!

Alien_RageХит недели

RePack

MK11
pack

Забери бонус

RePack

jed

!!Акция!!

Alien_Rage

RePack

fifa19

RePack

Assassins Creed: Odyssey

RePack

NEED FOR SPEED™ PAYBACK

4 сезон

9 сезон

Бесстыжие 9 сезон

Все сериалы

все сериалы на PB.wtf

RePack

FAR CRY 5
  

Пуля Дурова / Серии: 1-2 из 2 (Вячеслав Рогожкин) [2018, Детектив, криминал, мистика, WEB-DLRip-AVC] pb.wtf

Пуля Дурова через торрент pb.wtf

Размер: 1.62 GB | Добавлен: 6 мес. назад | Торрент скачан:56 раз
Скачать  

17-04-2020 17:00 Пуля Дурова Скачать торрент  

Пуля Дурова
Год выпуска: 2018
Страна: Россия
Студия: Проджект фильм
Жанр: Детектив, криминал, мистика
Продолжительность: ~ 00:52:00
Субтитры: отсутствуют

Режиссер: Вячеслав Рогожкин



В ролях: Сергей Жарков, Валерия Моисеева, Алексей Ошурков, Александр Наумов, Александр Андриенко, Катарина Шпиринг, Дмитрий Гусев, Александр Коротков (II), Артём Мельничук, Максим Битюков, Анна Бачалова, Александр Вдовин, Максим Дромашко, Александр Бобров, Лев Прыгунов

Описание: Из-за тяжёлого ранения в голову следователя Дурова снимают с основной работы и назначают директором в районный музей полиции. На новой «административной» должности Дуров не оставляет следовательскую работу - теперь он негласно расследует дела, списанные в архив. При этом, после ранения главный герой начинает существовать в двух плоскостях, словно, проживает две жизни. Первая – события объективной реальности (работа, друзья, антагонисты, любовь), вторая жизнь субъективно протекает в голове героя, Дурова откидывает в прошлое, где он становится непосредственным участником событий, с которыми связано первое архивное дело Дурова. 1944 год. Немецкий концентрационный лагерь. Немцы на глазах военнопленных казнят героя-подпольщика Лужина. Все факты указывают на то, что сдал Лужина его же сослуживец Каюров. Но справедливо ли на Каюров всю жизнь носил ярлык предателя? И если не Каюров, то кто?! Это и предстоит выяснить Дурову, пройдя через все мытарства вместе с героями военных событий…

Качество: WEB-DLRip-AVC
Формат: MKV

Видео: 1024х576 (16:9), 25 fps, AVC MPEG-4 (x264), High@L4.1 ~ 2000 kbps avg, 0.136 bit/pixel
Аудио: 48.0 kHz, AC3 Dolby Digital, 2/0 (L,R) ch, ~ 192 kbps
скриншот  скриншот  скриншот  скриншот  

Общее
Уникальный идентификатор : 174259084708655421011793155461881156288 (0x83191434E66B877FA278C01B928252C0)
Полное имя : C:\Pulya.Durova.2018.WEB-DLRip.(AVC).ExKinoRay\Pulya.Durova.E01.2018.WEB-DLRip.(AVC).ExKinoRay.mkv
Формат : Matroska
Версия формата : Version 2
Размер файла : 858 Мбайт
Продолжительность : 54 м. 44 с.
Общий поток : 2192 Кбит/сек
Дата кодирования : UTC 2020-04-17 16:12:21
Программа кодирования : mkvmerge v7.8.0 ('River Man') 32bit built on Apr 3 2015 12:11:22
Библиотека кодирования : libebml v1.3.1 + libmatroska v1.4.2

Видео
Идентификатор : 1
Формат : AVC
Формат/Информация : Advanced Video Codec
Профиль формата : High@L4.1
Настройки формата : CABAC / 10 Ref Frames
Параметр CABAC формата : Да
Параметр RefFrames формата : 10 кадров
Идентификатор кодека : V_MPEG4/ISO/AVC
Продолжительность : 54 м. 44 с.
Битрейт : 2000 Кбит/сек
Ширина : 1024 пикселя
Высота : 576 пикселей
Соотношение сторон : 16:9
Режим частоты кадров : Постоянный
Частота кадров : 25,000 кадров/сек
Цветовое пространство : YUV
Субдискретизация насыщенности : 4:2:0
Битовая глубина : 8 бит
Тип развёртки : Прогрессивная
Бит/(Пиксели*Кадры) : 0.136
Размер потока : 766 Мбайт (89%)
Библиотека кодирования : x264 core 146 r2538 121396c
Настройки программы : cabac=1 / ref=10 / deblock=1:-3:-3 / analyse=0x3:0x113 / me=umh / subme=11 / psy=1 / psy_rd=1.00:0.20 / mixed_ref=1 / me_range=32 / chroma_me=1 / trellis=2 / 8x8dct=1 / cqm=0 / deadzone=21,11 / fast_pskip=1 / chroma_qp_offset=-3 / threads=24 / lookahead_threads=9 / sliced_threads=0 / nr=0 / decimate=0 / interlaced=0 / bluray_compat=0 / constrained_intra=0 / bframes=11 / b_pyramid=2 / b_adapt=2 / b_bias=0 / direct=3 / weightb=1 / open_gop=0 / weightp=2 / keyint=250 / keyint_min=25 / scenecut=40 / intra_refresh=0 / rc_lookahead=60 / rc=2pass / mbtree=1 / bitrate=2000 / ratetol=1.0 / qcomp=0.60 / qpmin=0 / qpmax=69 / qpstep=4 / cplxblur=20.0 / qblur=0.5 / vbv_maxrate=14000 / vbv_bufsize=14000 / nal_hrd=none / filler=0 / ip_ratio=1.40 / aq=3:1.40
Default : Да
Forced : Нет
Цветовой диапазон : Limited
Основные цвета : BT.709
Характеристики трансфера : BT.709
Коэффициенты матрицы : BT.709

Аудио
Идентификатор : 2
Формат : AC-3
Формат/Информация : Audio Coding 3
Коммерческое название : Dolby Digital
Идентификатор кодека : A_AC3
Продолжительность : 54 м. 44 с.
Вид битрейта : Постоянный
Битрейт : 192 Кбит/сек
Каналы : 2 канала
ChannelLayout : L R
Частота : 48,0 КГц
Частота кадров : 31,250 кадров/сек (1536 SPF)
Битовая глубина : 16 бит
Метод сжатия : С потерями
Размер потока : 75,2 Мбайт (9%)
ServiceKind/String : Complete Main
Default : Да
Forced : Нет

pb.wtf



Скачать Пуля Дурова через торрент https://img12.lostpic.net/2020/04/17/6ef4574593d666322df57585fd410f03.th.jpg Скачать фильм Пуля Дурова через торрент бесплантно в хорошем качестве Описание: Из-за тяжёлого ранения в голову следователя Дурова снимают с основной работы и назначают директором в районный музей полиции. На ... 10 10 3
Торрент: Зарегистрирован [2020-04-17 17:00] · скачан: 56 раз
Статус: √ проверено
Размер: 1.62 GB
Как cкачать? Как скачать Пуля Дурова через торрент | qTorrent

% Раздел Тема Автор DL S | L
Наши сериалы [ 1.32 GB ] Пуля Дурова / Серии: 1-2 из 2 [2018 WEBRip-AVC] aleksan55 Скачать
1 | 0
Наши сериалы [ 3.83 GB ] Пуля Дурова / Серии: 1-2 из 2 [2018 WEB-DL 1080p] bober100 Скачать
1 | 0
Наши сериалы [ 2.35 GB ] Пуля Дурова / Серии: 1-2 из 2 [2018 WEB-DL 720p] bober100 Скачать
1 | 0
Наши сериалы [ 1.37 GB ] Пуля Дурова / Серии: 1-2 из 2 [2018 WEB-DLRip] bober100 Скачать
2 | 0

28-11-2019 20:33  

Отключить всю рекламу на сайте

    Дорогой пользователь! Огромная просьба, поблагодарите релизера, оцените раздачу и оставьте свои комментарий, если Вы скачали Пуля Дурова через торрент бесплатно! Внесите свою лепту в развитие PiratBit!
    Комментировать посты могут только пользователи прошедшие не сложную регистрацию
    Показать сообщения:    

    Пуля Дурова через торрент
    Скачать бесплатно Пуля Дурова
    Пуля Дурова скачать торрент
    Пуля Дурова смотреть онлайн
    Cкачать фильм Пуля Дурова бесплатно
    Пуля Дурова скачать торрент в хорошем качестве
    Пуля Дурова смотреть онлайн бесплатно в хорошем качестве


    Вы не можете начинать темы
    Вы не можете отвечать на сообщения
    Вы не можете редактировать свои сообщения
    Вы не можете удалять свои сообщения
    Вы не можете голосовать в опросах
    Вы не можете прикреплять файлы к сообщениям
    Вы можете скачивать файлы