Ссылка на приватное зеркало всего за 1$. Внимание количество ограничено!!!

iTunes

iTunes

iTunes

1

iTunes

iTunes

iTunes

iTunes

iTunes

30
pack

Новость дня

ВАЖНО

!!Акция!!

Alien_RageХит недели

RePack

Resident Evil 21

ИГРА 18+

pack

RePack

jed

!!Акция!!

Alien_Rage

RePack

fifa19

RePack

Assassins Creed: Odyssey

RePack

NEED FOR SPEED™ PAYBACK

4 сезон

9 сезон

Бесстыжие 9 сезон

Все сериалы

все сериалы на PB.wtf

RePack

FAR CRY 5
  

Красные туфельки и семь гномов / Red Shoes (Хон Сон-хо) [2020, мультфильм, фэнтези, комедия, приключения, семейный, BDRip 720p] DUB [iTunes] pb.wtf

Красные туфельки и семь гномов через торрент pb.wtf

Раздают: 4 [ 132 KB/s ]
Размер: 4.89 GB | Добавлен: 1 мес. 9 д. назад | Торрент скачан:125 раз
Скачать  

18-04-2020 05:38 Красные туфельки и семь гномов Скачать торрент  

Красные туфельки и семь гномов | Red Shoes
Год выпуска: 2020
Страна: Южная Корея
Студия: Locus Creative Studios, Next Entertainment World, Sidus
Жанр: мультфильм, фэнтези, мелодрама, комедия, приключения, семейный
Продолжительность: 01:32:00
Перевод: Дублированный | iTunes
Субтитры: отсутствуют

Режиссер: Хон Сон-хо

rating

В ролях: Хлоя Грейс Морец, Сэм Клафлин, Джина Гершон, Патрик Варбертон, Джим Рэш, Фредерик Хамель, Ава Колкер, Жужу Джорни Бренер, Сет Редфорд, Кэти ДиЧикко

Описание: Давным-давно в сказочном королевстве жила-была девушка. И однажды она нашла пару волшебных туфелек: стоит их надеть - превращаешься в классическую красавицу-принцессу... Семь принцев, заколдованных злой ведьмой, стали уродливыми зелеными гномами. Чтобы вернуть себе человеческий облик, им нужен один поцелуй прекрасной девушки. В один день пути героев пересекутся, и они узнают, что такое настоящая дружба, любовь и красота.

Качество: BDRip 720p
Формат: MKV

Видео: MPEG-4 AVC, 1280x690, 6587 Kbit/s, 23.976 fps
Аудио #01: 48 kHz, AC3, 5.1, 384 Kbps | iTunes | RUS |
Аудио #02: 48 kHz, AC3, 5.1, 640 Kbps | Оригинал | ENG |
скриншот  скриншот  скриншот  скриншот  скриншот  

General
Unique ID : 275405659970444062766124233924488210872 (0xCF313363A2EAC60618C6CB826E2429B8)
Complete name : E:Video111Red.Shoes.And.The.Seven.Dwarfs.2019.BDRip.720p.seleZen.mkv
Format : Matroska
Format version : Version 4
File size : 4.89 GiB
Duration : 1 h 32 min
Overall bit rate : 7 602 kb/s
Movie name : Red Shoes And The Seven Dwarfs 2019 from селезень
Encoded date : UTC 2020-04-18 04:36:38
Writing application : mkvmerge v40.0.0 ('Old Town Road + Pony') 64-bit
Writing library : libebml v1.3.9 + libmatroska v1.5.2
Cover : Yes
Attachments : cover.jpg

Video
ID : 1
Format : AVC
Format/Info : Advanced Video Codec
Format profile : High@L4.1
Format settings : CABAC / 9 Ref Frames
Format settings, CABAC : Yes
Format settings, Reference : 9 frames
Codec ID : V_MPEG4/ISO/AVC
Duration : 1 h 32 min
Bit rate : 6 587 kb/s
Width : 1 280 pixels
Height : 690 pixels
Display aspect ratio : 1.85:1
Frame rate mode : Constant
Frame rate : 23.976 (24000/1001) FPS
Color space : YUV
Chroma subsampling : 4:2:0
Bit depth : 8 bits
Scan type : Progressive
Bits/(Pixel*Frame) : 0.311
Stream size : 4.23 GiB (86%)
Title : Encoded by seleZen
Writing library : x264 core 142 r2431+42 c69a006 tMod [8-bit@all X86_64]
Encoding settings : cabac=1 / ref=9 / deblock=1:-2:-2 / analyse=0x3:0x133 / me=umh / subme=10 / psy=1 / fade_compensate=0.00 / psy_rd=1.00:0.00 / mixed_ref=1 / me_range=32 / chroma_me=1 / trellis=2 / 8x8dct=1 / cqm=0 / deadzone=21,11 / fast_pskip=0 / chroma_qp_offset=-2 / threads=24 / lookahead_threads=4 / sliced_threads=0 / nr=0 / decimate=0 / interlaced=0 / bluray_compat=0 / constrained_intra=0 / fgo=0 / bframes=8 / b_pyramid=2 / b_adapt=2 / b_bias=0 / direct=3 / weightb=1 / open_gop=0 / weightp=2 / keyint=240 / keyint_min=23 / scenecut=40 / intra_refresh=0 / rc_lookahead=50 / rc=2pass / mbtree=0 / bitrate=6587 / ratetol=1.0 / qcomp=0.60 / qpmin=0:0:0 / qpmax=51:51:51 / qpstep=4 / cplxblur=20.0 / qblur=0.5 / vbv_maxrate=50000 / vbv_bufsize=62500 / nal_hrd=none / filler=0 / ip_ratio=1.40 / pb_ratio=1.30 / aq=3:0.80 / aq-sensitivity=10.00 / aq-factor=1.00:1.00:1.00 / aq2=0 / aq3=0
Language : English
Default : Yes
Forced : No

Audio #1
ID : 2
Format : AC-3
Format/Info : Audio Coding 3
Commercial name : Dolby Digital
Codec ID : A_AC3
Duration : 1 h 32 min
Bit rate mode : Constant
Bit rate : 384 kb/s
Channel(s) : 6 channels
Channel layout : L R C LFE Ls Rs
Sampling rate : 48.0 kHz
Frame rate : 31.250 FPS (1536 SPF)
Compression mode : Lossy
Stream size : 253 MiB (5%)
Title : iTunes
Language : Russian
Service kind : Complete Main
Default : Yes
Forced : Yes

Audio #2
ID : 3
Format : AC-3
Format/Info : Audio Coding 3
Commercial name : Dolby Digital
Codec ID : A_AC3
Duration : 1 h 32 min
Bit rate mode : Constant
Bit rate : 640 kb/s
Channel(s) : 6 channels
Channel layout : L R C LFE Ls Rs
Sampling rate : 48.0 kHz
Frame rate : 31.250 FPS (1536 SPF)
Compression mode : Lossy
Stream size : 421 MiB (8%)
Title : Original
Language : English
Service kind : Complete Main
Default : No
Forced : No

Menu
00:00:00.000 : en:Chapter 01
00:07:26.112 : en:Chapter 02
00:14:32.037 : en:Chapter 03
00:20:54.336 : en:Chapter 04
00:27:22.182 : en:Chapter 05
00:33:33.720 : en:Chapter 06
00:43:24.018 : en:Chapter 07
00:50:41.872 : en:Chapter 08
00:56:27.509 : en:Chapter 09
01:03:31.599 : en:Chapter 10
01:12:52.701 : en:Chapter 11
01:24:01.077 : en:Chapter 12

pb.wtf



Скачать Красные туфельки и семь гномов через торрент https://i111.fastpic.ru/big/2020/0417/7f/dc8be04578f72b6b994c16be638fa97f.jpg Скачать фильм Красные туфельки и семь гномов через торрент бесплантно в хорошем качестве Описание: Давным-давно в сказочном королевстве жила-была девушка. И однажды она нашла пару волшебных туфелек: стоит их надеть - ... 10 10 5
Info! Золотая раздача, скачанное не засчитывается.
Торрент: Зарегистрирован [2020-04-18 05:38] · скачан: 125 раз
Статус: √ проверено
Размер: 4.89 GB
Как cкачать? Как скачать Красные туфельки и семь гномов через торрент | qTorrent

% Раздел Тема Автор DL S | L
Зарубежные Мультфильмы (BDRip 1080p, 720p, Blu-ray, BD-Remux) [ 23.37 GB ] Красные туфельки и семь гномов / Red Shoes [2020 мультфильм BD Remux 1080p] bober100 Скачать
3 | 0
Иностранные мультфильмы [ 1.42 GB ] Красные туфельки и семь гномов / Red Shoes [2020 мультфильм BDRip] MVO Twi7ter Скачать
61 | 1
Зарубежные Мультфильмы (BDRip 1080p, 720p, Blu-ray, BD-Remux) [ 9.34 GB ] Красные туфельки и семь гномов / Red Shoes [2020 мультфильм BDRip 1080p] bober100 Скачать
2 | 0
Зарубежные Мультфильмы (WEB-DL 720p, 1080p) [ 3.55 GB ] Красные туфельки и семь гномов / Red Shoes [2020 мультфильм WEB-DL 1080p] bober100 Скачать
20 | 0
Иностранные мультфильмы [ 1.46 GB ] Красные туфельки и семь гномов / Red Shoes [2020 мультфильм BDRip] bober100 Скачать
9 | 0

28-11-2019 20:33  

Отключить всю рекламу на сайте

    Дорогой пользователь! Огромная просьба, поблагодарите релизера, оцените раздачу и оставьте свои комментарий, если Вы скачали Красные туфельки и семь гномов через торрент бесплатно! Внесите свою лепту в развитие PiratBit!
    Комментировать посты могут только пользователи прошедшие не сложную регистрацию
    Показать сообщения:    

    Красные туфельки и семь гномов через торрент
    Скачать бесплатно Красные туфельки и семь гномов
    Красные туфельки и семь гномов скачать торрент
    Красные туфельки и семь гномов смотреть онлайн
    Cкачать фильм Красные туфельки и семь гномов бесплатно
    Красные туфельки и семь гномов скачать торрент в хорошем качестве
    Красные туфельки и семь гномов смотреть онлайн бесплатно в хорошем качестве


    Вы не можете начинать темы
    Вы не можете отвечать на сообщения
    Вы не можете редактировать свои сообщения
    Вы не можете удалять свои сообщения
    Вы не можете голосовать в опросах
    Вы не можете прикреплять файлы к сообщениям
    Вы можете скачивать файлы