Всегда рабочее зеркало без VPN и Proxy просто перед .vidak.icu напиши любое слово или цифру, Пример http://hhin.vidak.icu

MVO

MVO

1 сезон

1

1 сезон

iTunes

1 сезон

13

1 сезон

Deluxe

pack

Рекомендуем

Repack

30

ВАЖНО

RePack

MK11

RePack

jed

RePack

fifa19

RePack

RDR2

RePack

NEED FOR SPEED™ PAYBACK

Кинопоиск HD

6 сезон

 Острые козырьки 6 сезон

Все сериалы

все сериалы на PB.wtf

RePack

FAR CRY 5
  
Magnet ссылка

Don Barnes - Ride The Storm (2CD) - 2017/ FLAC/ image +.cue/ lossless/ Melodic Hard Rock pb.wtf

Don Barnes - Ride The Storm через торрент pb.wtf

Размер: 703 MB | Добавлен: 2 года 3 мес. назад | Торрент скачан:22 раза
Смотреть онлайн Don Barnes - Ride The Storm | Скачать    Ребята, помогите собрать деньги на оплату серверов!!!

18-04-2020 11:26 Don Barnes - Ride The Storm Скачать торрент  


Don Barnes - Ride The Storm (2CD)


Год издания: 2017
Страна: USA
Жанр: Melodic Hard Rock
Продолжительность: 01:37:36
Лейбл издания: Melodic Rock Records
Страна-выпуска диска: Australia
Номер по каталогу: MRR056
Формат: FLAC
Битрейт аудио: Lossless
Тип рипа: image +.cue
Наличие сканов в содержимом раздачи: да


01. Ride The Storm (4:52)
02. Looking For You (5:13)
03. I Fall Back (4:17)
04. Don't Look Down (4:25)
05. Maybe You'll Believe Me Now (4:37)
06. I'd Do It All Over Again (4:13)
07. Everytime We Say Goodbye (4:36)
08. Feelin' Stronger Everyday (3:49)
09. After The Way (4:30)
10. Johnny Ain't So Cool (3:35)

01. Ride The Storm (Alternate Mix) (4:42)
02. Looking For You (Alternate Mix) (4:47)
03. I Fall Back (Alternate Mix) (4:01)
04. Don't Look Down (Alternate Mix) (4:18)
05. Maybe You'll Believe Me Now (Alternate Mix) (4:36)
06. I'd Do It All Over Again (Alternate Mix) (4:19)
07. Everytime We Say Goodbye (Alternate Mix) (4:21)
08. Feelin' Stronger Everyday (Alternate Mix) (3:39)
09. After The Way (Alternate Mix) (4:18)
10. Johnny Ain't So Cool (Alternate Mix) (3:28)
11. Through The Eyes Of Love (Demo) (4:29)
12. Looking For Juliet (Demo) (3:01)
13. Let's Talk About Love (Demo) (3:28)

Код:

X Lossless Decoder version 20181019 (151.1)

XLD extraction logfile from 2020-04-04 13:54:45 +1000

Don Barnes / Ride The Storm

Used drive : Optiarc DVD RW AD-7700S (revision 1.D5)
Media type : Pressed CD

Ripper mode             : XLD Secure Ripper
Disable audio cache     : OK for the drive with a cache less than 1375KiB
Make use of C2 pointers : NO
Read offset correction  : 48
Max retry count         : 100
Gap status              : Analyzed, Appended

TOC of the extracted CD
     Track |   Start  |  Length  | Start sector | End sector
    ---------------------------------------------------------
        1  | 00:00:00 | 04:51:55 |         0    |    21879
        2  | 04:51:55 | 05:13:33 |     21880    |    45387
        3  | 10:05:13 | 04:16:47 |     45388    |    64634
        4  | 14:21:60 | 04:25:10 |     64635    |    84519
        5  | 18:46:70 | 04:37:29 |     84520    |   105323
        6  | 23:24:24 | 04:12:50 |    105324    |   124273
        7  | 27:36:74 | 04:35:51 |    124274    |   144949
        8  | 32:12:50 | 03:48:57 |    144950    |   162106
        9  | 36:01:32 | 04:30:02 |    162107    |   182358
       10  | 40:31:34 | 03:35:14 |    182359    |   198497

List of alternate offset correction values
        #  | Absolute | Relative | Confidence
    ------------------------------------------
        1  |     60   |     12   |      8

AccurateRip Summary (DiscID: 00114d6f-0089278e-820a560a)
    Track 01 : OK (v2, confidence 2/10)
    Track 02 : OK (v2, confidence 2/10)
    Track 03 : OK (v2, confidence 2/10)
    Track 04 : OK (v2, confidence 2/10)
    Track 05 : OK (v2, confidence 2/10)
    Track 06 : OK (v2, confidence 2/10)
    Track 07 : OK (v2, confidence 2/10)
    Track 08 : OK (v2, confidence 2/10)
    Track 09 : OK (v2, confidence 2/10)
    Track 10 : OK (v2, confidence 2/10)
        ->All tracks accurately ripped.

All Tracks
    Filename : /Volumes/Seagate Backup Plus Drive/Music/My COLLECTION/Don Barnes/2017 - Ride The Storm/CD 1/Ride The Storm.flac
    Album gain               : -12.55 dB
    Peak                     : 0.999969
    CRC32 hash (test run)    : 018E9662
    CRC32 hash               : 018E9662
    CRC32 hash (skip zero)   : 742E9F44
    Statistics
        Read error                           : 0
        Jitter error (maybe fixed)           : 0
        Retry sector count                   : 0
        Damaged sector count                 : 0

Track 01
    Pre-gap length : 00:02:00

    Track gain               : -12.35 dB
    Peak                     : 0.999969
    CRC32 hash (test run)    : AEA3F955
    CRC32 hash               : AEA3F955
    CRC32 hash (skip zero)   : C58A1733
    AccurateRip v1 signature : C48042A6
    AccurateRip v2 signature : BF770D7B
        ->Accurately ripped (v2, confidence 2/10)
    Statistics
        Read error                           : 0
        Jitter error (maybe fixed)           : 0
        Retry sector count                   : 0
        Damaged sector count                 : 0

Track 02
    Pre-gap length : 00:02:00

    Track gain               : -12.57 dB
    Peak                     : 0.999969
    CRC32 hash (test run)    : D27BCC13
    CRC32 hash               : D27BCC13
    CRC32 hash (skip zero)   : 0A383FD3
    AccurateRip v1 signature : F5C837F9
    AccurateRip v2 signature : 0F7AA383
        ->Accurately ripped (v2, confidence 2/10)
    Statistics
        Read error                           : 0
        Jitter error (maybe fixed)           : 0
        Retry sector count                   : 0
        Damaged sector count                 : 0

Track 03
    Pre-gap length : 00:02:00

    Track gain               : -12.39 dB
    Peak                     : 0.999969
    CRC32 hash (test run)    : 296E6093
    CRC32 hash               : 296E6093
    CRC32 hash (skip zero)   : 10A7EE38
    AccurateRip v1 signature : 78C73B2F
    AccurateRip v2 signature : 5891BA6B
        ->Accurately ripped (v2, confidence 2/10)
    Statistics
        Read error                           : 0
        Jitter error (maybe fixed)           : 0
        Retry sector count                   : 0
        Damaged sector count                 : 0

Track 04
    Pre-gap length : 00:02:00

    Track gain               : -12.70 dB
    Peak                     : 0.999969
    CRC32 hash (test run)    : 51B50508
    CRC32 hash               : 51B50508
    CRC32 hash (skip zero)   : FF7C7944
    AccurateRip v1 signature : 65A23A54
    AccurateRip v2 signature : 9C97319F
        ->Accurately ripped (v2, confidence 2/10)
    Statistics
        Read error                           : 0
        Jitter error (maybe fixed)           : 0
        Retry sector count                   : 0
        Damaged sector count                 : 0

Track 05
    Pre-gap length : 00:02:00

    Track gain               : -12.78 dB
    Peak                     : 0.999969
    CRC32 hash (test run)    : 8C79DBBB
    CRC32 hash               : 8C79DBBB
    CRC32 hash (skip zero)   : A7AFDAB3
    AccurateRip v1 signature : D96A9180
    AccurateRip v2 signature : 0BD2E91E
        ->Accurately ripped (v2, confidence 2/10)
    Statistics
        Read error                           : 0
        Jitter error (maybe fixed)           : 0
        Retry sector count                   : 0
        Damaged sector count                 : 0

Track 06
    Pre-gap length : 00:02:00

    Track gain               : -11.98 dB
    Peak                     : 0.999969
    CRC32 hash (test run)    : F33087CC
    CRC32 hash               : F33087CC
    CRC32 hash (skip zero)   : 84372407
    AccurateRip v1 signature : 9764B7DE
    AccurateRip v2 signature : 36F3A1F0
        ->Accurately ripped (v2, confidence 2/10)
    Statistics
        Read error                           : 0
        Jitter error (maybe fixed)           : 0
        Retry sector count                   : 0
        Damaged sector count                 : 0

Track 07
    Pre-gap length : 00:02:00

    Track gain               : -13.04 dB
    Peak                     : 0.999969
    CRC32 hash (test run)    : 6E9749E2
    CRC32 hash               : 6E9749E2
    CRC32 hash (skip zero)   : C3C25147
    AccurateRip v1 signature : 4EFBE37C
    AccurateRip v2 signature : 6D308753
        ->Accurately ripped (v2, confidence 2/10)
    Statistics
        Read error                           : 0
        Jitter error (maybe fixed)           : 0
        Retry sector count                   : 0
        Damaged sector count                 : 0

Track 08
    Pre-gap length : 00:02:00

    Track gain               : -12.96 dB
    Peak                     : 0.999969
    CRC32 hash (test run)    : AC988BBE
    CRC32 hash               : AC988BBE
    CRC32 hash (skip zero)   : 12F98B4D
    AccurateRip v1 signature : 30795B1E
    AccurateRip v2 signature : 3F91D8DD
        ->Accurately ripped (v2, confidence 2/10)
    Statistics
        Read error                           : 0
        Jitter error (maybe fixed)           : 0
        Retry sector count                   : 0
        Damaged sector count                 : 0

Track 09
    Pre-gap length : 00:02:00

    Track gain               : -12.73 dB
    Peak                     : 0.999969
    CRC32 hash (test run)    : 04AD774B
    CRC32 hash               : 04AD774B
    CRC32 hash (skip zero)   : B7EE5E44
    AccurateRip v1 signature : A910946F
    AccurateRip v2 signature : 5C96BFB9
        ->Accurately ripped (v2, confidence 2/10)
    Statistics
        Read error                           : 0
        Jitter error (maybe fixed)           : 0
        Retry sector count                   : 0
        Damaged sector count                 : 0

Track 10
    Pre-gap length : 00:02:00

    Track gain               : -11.66 dB
    Peak                     : 0.999969
    CRC32 hash (test run)    : 48FBBDF8
    CRC32 hash               : 48FBBDF8
    CRC32 hash (skip zero)   : 208FEE88
    AccurateRip v1 signature : 8A38A1A3
    AccurateRip v2 signature : E22D8023
        ->Accurately ripped (v2, confidence 2/10)
    Statistics
        Read error                           : 0
        Jitter error (maybe fixed)           : 0
        Retry sector count                   : 0
        Damaged sector count                 : 0

No errors occurred

End of status report

Код:

X Lossless Decoder version 20181019 (151.1)

XLD extraction logfile from 2020-04-04 14:09:04 +1000

Don Barnes / Ride The Storm [Disc 2]

Used drive : Optiarc DVD RW AD-7700S (revision 1.D5)
Media type : Pressed CD

Ripper mode             : XLD Secure Ripper
Disable audio cache     : OK for the drive with a cache less than 1375KiB
Make use of C2 pointers : NO
Read offset correction  : 48
Max retry count         : 100
Gap status              : Analyzed, Appended

TOC of the extracted CD
     Track |   Start  |  Length  | Start sector | End sector
    ---------------------------------------------------------
        1  | 00:00:00 | 04:42:21 |         0    |    21170
        2  | 04:42:21 | 04:47:12 |     21171    |    42707
        3  | 09:29:33 | 04:01:10 |     42708    |    60792
        4  | 13:30:43 | 04:18:29 |     60793    |    80171
        5  | 17:48:72 | 04:36:11 |     80172    |   100882
        6  | 22:25:08 | 04:19:28 |    100883    |   120335
        7  | 26:44:36 | 04:20:47 |    120336    |   139882
        8  | 31:05:08 | 03:39:05 |    139883    |   156312
        9  | 34:44:13 | 04:18:25 |    156313    |   175687
       10  | 39:02:38 | 03:28:31 |    175688    |   191318
       11  | 42:30:69 | 04:29:08 |    191319    |   211501
       12  | 47:00:02 | 03:00:62 |    211502    |   225063
       13  | 50:00:64 | 03:28:13 |    225064    |   240676

List of alternate offset correction values
        #  | Absolute | Relative | Confidence
    ------------------------------------------
        1  |    102   |     54   |      9
        2  |     90   |     42   |      2

AccurateRip Summary (DiscID: 001af46d-010ac401-a00c890d)
    Track 01 : OK (v1+v2, confidence 9/11, with different offset)
    Track 02 : OK (v1+v2, confidence 9/11, with different offset)
    Track 03 : OK (v1+v2, confidence 9/11, with different offset)
    Track 04 : OK (v1+v2, confidence 9/11, with different offset)
    Track 05 : OK (v1+v2, confidence 9/11, with different offset)
    Track 06 : OK (v1+v2, confidence 9/11, with different offset)
    Track 07 : OK (v1+v2, confidence 9/11, with different offset)
    Track 08 : OK (v1+v2, confidence 9/11, with different offset)
    Track 09 : OK (v1+v2, confidence 9/11, with different offset)
    Track 10 : OK (v1+v2, confidence 9/11, with different offset)
    Track 11 : OK (v1+v2, confidence 9/11, with different offset)
    Track 12 : OK (v1+v2, confidence 9/11, with different offset)
    Track 13 : OK (v1+v2, confidence 9/11, with different offset)
        ->All tracks accurately ripped.

All Tracks
    Filename : /Volumes/Seagate Backup Plus Drive/Music/My COLLECTION/Don Barnes/2017 - Ride The Storm/CD 2/Ride The Storm [Disc 2].flac
    Album gain               : -9.27 dB
    Peak                     : 0.965576
    CRC32 hash (test run)    : 7293B1BE
    CRC32 hash               : 7293B1BE
    CRC32 hash (skip zero)   : B483DBC3
    Statistics
        Read error                           : 0
        Jitter error (maybe fixed)           : 0
        Retry sector count                   : 0
        Damaged sector count                 : 0

Track 01
    Pre-gap length : 00:02:00

    Track gain               : -9.29 dB
    Peak                     : 0.965576
    CRC32 hash (test run)    : EF6C1DA3
    CRC32 hash               : EF6C1DA3
    CRC32 hash (skip zero)   : 9C6C7B91
    AccurateRip v1 signature : 4B003C77 (17EF3859 w/correction)
    AccurateRip v2 signature : C88BC53E (818C3E19 w/correction)
        ->Accurately ripped with different offset (v1+v2, confidence 2+7/11, offset +54)
    Statistics
        Read error                           : 0
        Jitter error (maybe fixed)           : 0
        Retry sector count                   : 0
        Damaged sector count                 : 0

Track 02

    Track gain               : -8.71 dB
    Peak                     : 0.965576
    CRC32 hash (test run)    : FB5A802F
    CRC32 hash               : FB5A802F
    CRC32 hash (skip zero)   : 4910F239
    AccurateRip v1 signature : 8278FF35 (61D3583D w/correction)
    AccurateRip v2 signature : 0338F398 (CE58FF61 w/correction)
        ->Accurately ripped with different offset (v1+v2, confidence 2+7/11, offset +54)
    Statistics
        Read error                           : 0
        Jitter error (maybe fixed)           : 0
        Retry sector count                   : 0
        Damaged sector count                 : 0

Track 03

    Track gain               : -8.86 dB
    Peak                     : 0.965576
    CRC32 hash (test run)    : B20EEB3C
    CRC32 hash               : B20EEB3C
    CRC32 hash (skip zero)   : 5309BFD4
    AccurateRip v1 signature : 5736875A (EA6A6776 w/correction)
    AccurateRip v2 signature : 373BCF64 (B972157C w/correction)
        ->Accurately ripped with different offset (v1+v2, confidence 2+7/11, offset +54)
    Statistics
        Read error                           : 0
        Jitter error (maybe fixed)           : 0
        Retry sector count                   : 0
        Damaged sector count                 : 0

Track 04

    Track gain               : -8.70 dB
    Peak                     : 0.965576
    CRC32 hash (test run)    : 65F9DBA9
    CRC32 hash               : 65F9DBA9
    CRC32 hash (skip zero)   : 23175F58
    AccurateRip v1 signature : 34427EE6 (61B55934 w/correction)
    AccurateRip v2 signature : D7E5D383 (F5E5B500 w/correction)
        ->Accurately ripped with different offset (v1+v2, confidence 2+7/11, offset +54)
    Statistics
        Read error                           : 0
        Jitter error (maybe fixed)           : 0
        Retry sector count                   : 0
        Damaged sector count                 : 0

Track 05

    Track gain               : -9.04 dB
    Peak                     : 0.965576
    CRC32 hash (test run)    : 466613D4
    CRC32 hash               : 466613D4
    CRC32 hash (skip zero)   : A2500494
    AccurateRip v1 signature : E33868DC (0300957C w/correction)
    AccurateRip v2 signature : B4C565BC (C135422A w/correction)
        ->Accurately ripped with different offset (v1+v2, confidence 2+7/11, offset +54)
    Statistics
        Read error                           : 0
        Jitter error (maybe fixed)           : 0
        Retry sector count                   : 0
        Damaged sector count                 : 0

Track 06

    Track gain               : -9.29 dB
    Peak                     : 0.965576
    CRC32 hash (test run)    : 8E7D8419
    CRC32 hash               : 8E7D8419
    CRC32 hash (skip zero)   : E9191BC2
    AccurateRip v1 signature : 73D73E83 (FC0ACB5B w/correction)
    AccurateRip v2 signature : 13EC3B61 (8FFDA454 w/correction)
        ->Accurately ripped with different offset (v1+v2, confidence 2+7/11, offset +54)
    Statistics
        Read error                           : 0
        Jitter error (maybe fixed)           : 0
        Retry sector count                   : 0
        Damaged sector count                 : 0

Track 07

    Track gain               : -9.77 dB
    Peak                     : 0.965576
    CRC32 hash (test run)    : ED05EB35
    CRC32 hash               : ED05EB35
    CRC32 hash (skip zero)   : D9EBB526
    AccurateRip v1 signature : F0ECB106 (1D678DA6 w/correction)
    AccurateRip v2 signature : 9437B444 (AE696D6E w/correction)
        ->Accurately ripped with different offset (v1+v2, confidence 2+7/11, offset +54)
    Statistics
        Read error                           : 0
        Jitter error (maybe fixed)           : 0
        Retry sector count                   : 0
        Damaged sector count                 : 0

Track 08

    Track gain               : -10.53 dB
    Peak                     : 0.965576
    CRC32 hash (test run)    : 3F958ECE
    CRC32 hash               : 3F958ECE
    CRC32 hash (skip zero)   : 962FB230
    AccurateRip v1 signature : 6B5DD62D (89EF56E7 w/correction)
    AccurateRip v2 signature : 1A5609B9 (299FE8AF w/correction)
        ->Accurately ripped with different offset (v1+v2, confidence 2+7/11, offset +54)
    Statistics
        Read error                           : 0
        Jitter error (maybe fixed)           : 0
        Retry sector count                   : 0
        Damaged sector count                 : 0

Track 09

    Track gain               : -9.61 dB
    Peak                     : 0.965576
    CRC32 hash (test run)    : EC4022B1
    CRC32 hash               : EC4022B1
    CRC32 hash (skip zero)   : FA7C2BD7
    AccurateRip v1 signature : 17F7FC87 (DD859839 w/correction)
    AccurateRip v2 signature : A3B047DC (5725D0F2 w/correction)
        ->Accurately ripped with different offset (v1+v2, confidence 2+7/11, offset +54)
    Statistics
        Read error                           : 0
        Jitter error (maybe fixed)           : 0
        Retry sector count                   : 0
        Damaged sector count                 : 0

Track 10

    Track gain               : -9.91 dB
    Peak                     : 0.965576
    CRC32 hash (test run)    : B7688010
    CRC32 hash               : B7688010
    CRC32 hash (skip zero)   : 362F9B2B
    AccurateRip v1 signature : E60BFF56 (C577C326 w/correction)
    AccurateRip v2 signature : CF9A52B5 (A09862AA w/correction)
        ->Accurately ripped with different offset (v1+v2, confidence 2+7/11, offset +54)
    Statistics
        Read error                           : 0
        Jitter error (maybe fixed)           : 0
        Retry sector count                   : 0
        Damaged sector count                 : 0

Track 11

    Track gain               : -9.00 dB
    Peak                     : 0.965576
    CRC32 hash (test run)    : 3B3406E2
    CRC32 hash               : 3B3406E2
    CRC32 hash (skip zero)   : 90442F05
    AccurateRip v1 signature : C06B0FCD (020948B3 w/correction)
    AccurateRip v2 signature : AF31C155 (DE054D0E w/correction)
        ->Accurately ripped with different offset (v1+v2, confidence 2+7/11, offset +54)
    Statistics
        Read error                           : 0
        Jitter error (maybe fixed)           : 0
        Retry sector count                   : 0
        Damaged sector count                 : 0

Track 12

    Track gain               : -7.31 dB
    Peak                     : 0.965576
    CRC32 hash (test run)    : EB9E341E
    CRC32 hash               : EB9E341E
    CRC32 hash (skip zero)   : 2797797B
    AccurateRip v1 signature : 9A271586 (4D3A8ECE w/correction)
    AccurateRip v2 signature : 07A85E6F (AE249756 w/correction)
        ->Accurately ripped with different offset (v1+v2, confidence 2+7/11, offset +54)
    Statistics
        Read error                           : 0
        Jitter error (maybe fixed)           : 0
        Retry sector count                   : 0
        Damaged sector count                 : 0

Track 13

    Track gain               : -9.36 dB
    Peak                     : 0.965576
    CRC32 hash (test run)    : E92E78CD
    CRC32 hash               : E92E78CD
    CRC32 hash (skip zero)   : AE969869
    AccurateRip v1 signature : 0F405648 (5CE902EA w/correction)
    AccurateRip v2 signature : 82D97E0B (C1F13501 w/correction)
        ->Accurately ripped with different offset (v1+v2, confidence 2+7/11, offset +54)
    Statistics
        Read error                           : 0
        Jitter error (maybe fixed)           : 0
        Retry sector count                   : 0
        Damaged sector count                 : 0

No errors occurred

End of status report

Код:

TITLE "Ride The Storm"
PERFORMER "Don Barnes"
REM GENRE "Rock"
REM DATE "1989"
REM DISCID 820A560A
REM REPLAYGAIN_ALBUM_GAIN -12.55 dB
REM REPLAYGAIN_ALBUM_PEAK 0.999969
FILE "Ride The Storm.flac" WAVE
  TRACK 01 AUDIO
    TITLE "Ride The Storm"
    PERFORMER "Don Barnes"
    ISRC AUEUI1705601
    REM REPLAYGAIN_TRACK_GAIN -12.35 dB
    REM REPLAYGAIN_TRACK_PEAK 0.999969
    INDEX 01 00:00:00
  TRACK 02 AUDIO
    TITLE "Looking For You"
    PERFORMER "Don Barnes"
    ISRC AUEUI1705602
    REM REPLAYGAIN_TRACK_GAIN -12.57 dB
    REM REPLAYGAIN_TRACK_PEAK 0.999969
    INDEX 00 04:49:55
    INDEX 01 04:51:55
  TRACK 03 AUDIO
    TITLE "I Fall Back"
    PERFORMER "Don Barnes"
    ISRC AUEUI1705603
    REM REPLAYGAIN_TRACK_GAIN -12.39 dB
    REM REPLAYGAIN_TRACK_PEAK 0.999969
    INDEX 00 10:03:13
    INDEX 01 10:05:13
  TRACK 04 AUDIO
    TITLE "Don't Look Down"
    PERFORMER "Don Barnes"
    ISRC AUEUI1705604
    REM REPLAYGAIN_TRACK_GAIN -12.70 dB
    REM REPLAYGAIN_TRACK_PEAK 0.999969
    INDEX 00 14:19:60
    INDEX 01 14:21:60
  TRACK 05 AUDIO
    TITLE "Maybe You'll Believe Me Now"
    PERFORMER "Don Barnes"
    ISRC AUEUI1705605
    REM REPLAYGAIN_TRACK_GAIN -12.78 dB
    REM REPLAYGAIN_TRACK_PEAK 0.999969
    INDEX 00 18:44:70
    INDEX 01 18:46:70
  TRACK 06 AUDIO
    TITLE "I'd Do It All Over Again"
    PERFORMER "Don Barnes"
    ISRC AUEUI1705606
    REM REPLAYGAIN_TRACK_GAIN -11.98 dB
    REM REPLAYGAIN_TRACK_PEAK 0.999969
    INDEX 00 23:22:24
    INDEX 01 23:24:24
  TRACK 07 AUDIO
    TITLE "Everytime We Say Goodbye"
    PERFORMER "Don Barnes"
    ISRC AUEUI1705607
    REM REPLAYGAIN_TRACK_GAIN -13.04 dB
    REM REPLAYGAIN_TRACK_PEAK 0.999969
    INDEX 00 27:34:74
    INDEX 01 27:36:74
  TRACK 08 AUDIO
    TITLE "Feelin' Stronger Everyday"
    PERFORMER "Don Barnes"
    ISRC AUEUI1705608
    REM REPLAYGAIN_TRACK_GAIN -12.96 dB
    REM REPLAYGAIN_TRACK_PEAK 0.999969
    INDEX 00 32:10:50
    INDEX 01 32:12:50
  TRACK 09 AUDIO
    TITLE "After The Way"
    PERFORMER "Don Barnes"
    ISRC AUEUI1705609
    REM REPLAYGAIN_TRACK_GAIN -12.73 dB
    REM REPLAYGAIN_TRACK_PEAK 0.999969
    INDEX 00 35:59:32
    INDEX 01 36:01:32
  TRACK 10 AUDIO
    TITLE "Johnny Ain't So Cool"
    PERFORMER "Don Barnes"
    ISRC AUEUI1705610
    REM REPLAYGAIN_TRACK_GAIN -11.66 dB
    REM REPLAYGAIN_TRACK_PEAK 0.999969
    INDEX 00 40:29:34
    INDEX 01 40:31:34

Код:

TITLE "Ride The Storm [Disc 2]"
PERFORMER "Don Barnes"
REM GENRE "Rock"
REM DATE "2017"
REM DISCNUMBER 2
REM TOTALDISCS 2
REM DISCID A00C890D
REM REPLAYGAIN_ALBUM_GAIN -9.27 dB
REM REPLAYGAIN_ALBUM_PEAK 0.965576
FILE "Ride The Storm [Disc 2].flac" WAVE
  TRACK 01 AUDIO
    TITLE "Ride The Storm (Alternate Mix)"
    ISRC AUEUI1705601
    REM REPLAYGAIN_TRACK_GAIN -9.29 dB
    REM REPLAYGAIN_TRACK_PEAK 0.965576
    INDEX 01 00:00:00
  TRACK 02 AUDIO
    TITLE "Looking For You (Alternate Mix)"
    ISRC AUEUI1705602
    REM REPLAYGAIN_TRACK_GAIN -8.71 dB
    REM REPLAYGAIN_TRACK_PEAK 0.965576
    INDEX 01 04:42:21
  TRACK 03 AUDIO
    TITLE "I Fall Back (Alternate Mix)"
    ISRC AUEUI1705603
    REM REPLAYGAIN_TRACK_GAIN -8.86 dB
    REM REPLAYGAIN_TRACK_PEAK 0.965576
    INDEX 01 09:29:33
  TRACK 04 AUDIO
    TITLE "Don't Look Down (Alternate Mix)"
    ISRC AUEUI1705604
    REM REPLAYGAIN_TRACK_GAIN -8.70 dB
    REM REPLAYGAIN_TRACK_PEAK 0.965576
    INDEX 01 13:30:43
  TRACK 05 AUDIO
    TITLE "Maybe You'll Believe Me Now (Alternate Mix)"
    ISRC AUEUI1705605
    REM REPLAYGAIN_TRACK_GAIN -9.04 dB
    REM REPLAYGAIN_TRACK_PEAK 0.965576
    INDEX 01 17:48:72
  TRACK 06 AUDIO
    TITLE "I'd Do It All Over Again (Alternate Mix)"
    ISRC AUEUI1705606
    REM REPLAYGAIN_TRACK_GAIN -9.29 dB
    REM REPLAYGAIN_TRACK_PEAK 0.965576
    INDEX 01 22:25:08
  TRACK 07 AUDIO
    TITLE "Everytime We Say Goodbye (Alternate Mix)"
    ISRC AUEUI1705607
    REM REPLAYGAIN_TRACK_GAIN -9.77 dB
    REM REPLAYGAIN_TRACK_PEAK 0.965576
    INDEX 01 26:44:36
  TRACK 08 AUDIO
    TITLE "Feelin' Stronger Everyday (Alternate Mix)"
    ISRC AUEUI1705608
    REM REPLAYGAIN_TRACK_GAIN -10.53 dB
    REM REPLAYGAIN_TRACK_PEAK 0.965576
    INDEX 01 31:05:08
  TRACK 09 AUDIO
    TITLE "After The Way (Alternate Mix)"
    ISRC AUEUI1705609
    REM REPLAYGAIN_TRACK_GAIN -9.61 dB
    REM REPLAYGAIN_TRACK_PEAK 0.965576
    INDEX 01 34:44:13
  TRACK 10 AUDIO
    TITLE "Johnny Ain't So Cool (Alternate Mix)"
    ISRC AUEUI1705610
    REM REPLAYGAIN_TRACK_GAIN -9.91 dB
    REM REPLAYGAIN_TRACK_PEAK 0.965576
    INDEX 01 39:02:38
  TRACK 11 AUDIO
    TITLE "Through The Eyes Of Love (Demo)"
    ISRC AUEUI1705611
    REM REPLAYGAIN_TRACK_GAIN -9.00 dB
    REM REPLAYGAIN_TRACK_PEAK 0.965576
    INDEX 01 42:30:69
  TRACK 12 AUDIO
    TITLE "Looking For Juliet (Demo)"
    ISRC AUEUI1705612
    REM REPLAYGAIN_TRACK_GAIN -7.31 dB
    REM REPLAYGAIN_TRACK_PEAK 0.965576
    INDEX 01 47:00:02
  TRACK 13 AUDIO
    TITLE "Let's Talk About Love (Demo)"
    ISRC AUEUI1705613
    REM REPLAYGAIN_TRACK_GAIN -9.36 dB
    REM REPLAYGAIN_TRACK_PEAK 0.965576
    INDEX 01 50:00:64






pb.wtf



Скачать Don Barnes - Ride The Storm через торрент https://i111.fastpic.ru/big/2020/0417/1c/fe7709fb985a7570b66f1063f175641c.png Скачать, смотреть онлайн Don Barnes - Ride The Storm бесплантно в хорошем качестве ... 9.5 10 2
Торрент: Зарегистрирован [2020-04-18 11:26] · скачан: 22 раз
Статус: √ проверено
Размер: 703 MB
Как cкачать? Как скачать Don Barnes - Ride The Storm через торрент | UTorrent

28-11-2019 20:33  

Отключить вcю реклaмy на сайте

    Дорогой пользователь! Огромная просьба, поблагодарите релизера, оцените раздачу и оставьте свои комментарий, если Вы скачали Don Barnes - Ride The Storm через торрент бесплатно!
    Комментировать посты могут только пользователи прошедшие не сложную регистрацию
    Показать сообщения:    

    Don Barnes - Ride The Storm через торрент
    Скачать бесплатно Don Barnes - Ride The Storm
    Don Barnes - Ride The Storm скачать торрент
    Don Barnes - Ride The Storm смотреть онлайн
    Cкачать фильм Don Barnes - Ride The Storm бесплатно
    Don Barnes - Ride The Storm скачать торрент в хорошем качестве
    Don Barnes - Ride The Storm смотреть онлайн бесплатно в хорошем качестве


    Вы не можете начинать темы
    Вы не можете отвечать на сообщения
    Вы не можете редактировать свои сообщения
    Вы не можете удалять свои сообщения
    Вы не можете голосовать в опросах
    Вы не можете прикреплять файлы к сообщениям
    Вы можете скачивать файлы