Всегда рабочее зеркало без VPN и Proxy просто перед .vidak.icu напиши любое слово или цифру, Пример http://whnu.vidak.icu

MVO

2 сезон

1 сезон

1

1 сезон

iTunes

2 сезон

13

1 сезон

Deluxe

pack

Рекомендуем

Пиратка

30

ВАЖНО

RePack

MK11

RePack

jed

RePack

fifa19

RePack

RDR2

RePack

NEED FOR SPEED™ PAYBACK

Кинопоиск HD

6 сезон

 Острые козырьки 6 сезон

Все сериалы

все сериалы на PB.wtf

RePack

FAR CRY 5

Anonymous, нам критически не хватает 5601 руб. на оплату серверов и переферии за Апрель, помоги нам пожалуйста, вся надежда только на тебя. В благодарность мы отключим тебе всю рекламу на сайте!

×
  
Magnet ссылка

Хищник. Коллекция / Predator. Collection (Джон МакТирнан, Стивен Хопкинс, Пол У. С. Андерсон, Колин и Грег Штраус, Нимрод Антал, Шейн Блэк)[1987-2018 г.; фантастика, боевик; BDRip 1080] [HEVC] DUB [Blu-ray CEE] MVO pb.wtf

Хищник. Коллекция через торрент pb.wtf

Раздают: 1 [ 0 KB/s ]
Размер: 11.02 GB | Добавлен: 2 года 1 мес. назад | Торрент скачан:133 раза
Смотреть онлайн Хищник. Коллекция | Скачать    Ребята, помогите собрать деньги на оплату серверов!!!

18-04-2020 12:38 Хищник. Коллекция Скачать торрент  

Хищник. Коллекция / Predator. Collection
Хищник / Predator
Год выпуска: 1987
Страна: США
Жанр: фантастика, боевик
Продолжительность: 01:46:31
Перевод: Русский дубляж [Blu-ray CEE]
Субтитры: Нет
Режиссер: Джон МакТирнан
В ролях: Арнольд Шварценеггер, Карл Уэзерс, Эльпидия Каррильо, Билл Дьюк, Джесси Вентура, Сонни Лэндэм, Ричард Чавес, Р.Г. Армстронг, Шейн Блэк, Кевин Питер Холл
Описание: Американский вертолет был сбит партизанами в Южной Америке. Оставшийся в живых экипаж находится в плену. Центральное разведывательное управление США бросает свои лучшие силы для освобождения американских граждан. Элитная группа спецназа во главе с Датчем была заброшена в южноамериканские джунгли.
Качество: BDRip 1080
Формат: MKV
Видео кодек: h.265
Аудио кодек: AC3
Видео: 1920x1080, 23.976 fps, 2347 kbps
Аудио: AC3, 6 ch, 448 kb/s 48,0 KHz - Русский дубляж [Blu-ray CEE]

Код:

Общее
Уникальный идентификатор                 : 217964170765027023716211805767577088511 (0xA3FA5F50E31BC7BDA6478E5020DFB1FF)
Полное имя                               : 1.Хищник, 1987 (BDRip 1080p).mkv
Формат                                   : Matroska
Версия формата                           : Version 2
Размер файла                             : 2,15 Гбайт
Продолжительность                        : 1 ч. 46 м.
Общий поток                              : 2886 Кбит/сек
Название фильма                          : 1.Хищник, 1987 (BDRip 1080p)+
Дата кодирования                         : UTC 2020-04-17 16:36:32
Программа кодирования                    : DVDFab 11.0.0.3
Библиотека кодирования                   : libebml v1.3.4 + libmatroska v1.4.5

Видео
Идентификатор                            : 1
Формат                                   : HEVC
Формат/Информация                        : High Efficiency Video Coding
Профиль формата                          : Main@L4@Main
Идентификатор кодека                     : V_MPEGH/ISO/HEVC
Продолжительность                        : 1 ч. 46 м.
Битрейт                                  : 2437 Кбит/сек
Ширина                                   : 1920 пикселей
Высота                                   : 1080 пикселей
Соотношение сторон                       : 16:9
Режим частоты кадров                     : Постоянный
Частота кадров                           : 23,976 (24000/1001) кадра/сек
Цветовое пространство                    : YUV
Субдискретизация насыщенности            : 4:2:0
Битовая глубина                          : 8 бит
Бит/(Пиксели*Кадры)                      : 0.049
Размер потока                            : 1,81 Гбайт (84%)
Default                                  : Да
Forced                                   : Нет
Цветовой диапазон                        : Limited
Основные цвета                           : BT.709
Характеристики трансфера                 : BT.709
Коэффициенты матрицы                     : BT.709

Аудио
Идентификатор                            : 2
Формат                                   : AC-3
Формат/Информация                        : Audio Coding 3
Коммерческое название                    : Dolby Digital
Идентификатор кодека                     : A_AC3
Продолжительность                        : 1 ч. 46 м.
Вид битрейта                             : Постоянный
Битрейт                                  : 448 Кбит/сек
Каналы                                   : 6 каналов
Channel layout                           : L R C LFE Ls Rs
Частота                                  : 48,0 КГц
Частота кадров                           : 31,250 кадров/сек (1536 SPF)
Битовая глубина                          : 16 бит
Метод сжатия                             : С потерями
Размер потока                            : 341 Мбайт (16%)
Язык                                     : Russian
ServiceKind/String                       : Complete Main
Default                                  : Да
Forced                                   : Нет

скриншот  скриншот  скриншот  
Хищник 2 / Predator 2
Год выпуска: 1990
Страна: США
Жанр: фантастика, боевик
Продолжительность: 01:47:59
Перевод: Русский дубляж [Blu-ray CEE]
Субтитры: Нет
Режиссер: Стивен Хопкинс
В ролях: Дэнни Гловер, Гэри Бьюзи, Рубен Блэйдс, Мария Кончита Алонсо, Билл Пэкстон, Роберт Дави, Кевин Питер Холл, Адам Болдуин, Кент МакКорд, Мортон Дауни мл., Кэлвин Локхарт, Стив Кэхэн, Генри Кинги, Кори Рэнд, Эльпидия Каррильо, Лилиан Шовин, Майкл Марк Эдмондсон, Тери Вейгель, Уильям Р. Перри, Алекс Чэпман
Описание: Харриган — крутой полицейский отдела по борьбе с наркотиками полиции Лос — Анджелеса. Ему поручено расследование серии убийств крупных криминальных авторитетов города. Все убийства совершены в извращенной форме и пахнут неприкрытым садизмом. После проведения экспертиз и расследований становится ясно, что убийство — дело рук существа, не имеющего ничего общего с человеком. Землю опять посетил межпланетный охотник, но ему придется столкнуться с существом еще более опасным, чем он сам — с человеком. Харриган выслеживает охотника, постепенно сам становясь охотником. Один на один, как настоящий воин, он ведет бескомпромиссную битву за сохранение чести и права человека не быть существом, на которое можно охотиться.
Качество: BDRip 1080
Формат: MKV
Видео кодек: h.265
Аудио кодек: AC3
Видео: 1920x1040, 23.976 fps, 2357 kbps
Аудио: AC3, 6 ch, 448 kb/s 48,0 KHz - Русский дубляж [Blu-ray CEE]

Код:

Общее
Уникальный идентификатор                 : 231089719140658350328335359213781353776 (0xADDA42D07504E5FB9CBB590CE2778530)
Полное имя                               : 2.Хищник 2, 1990 (BDRip 1080p).mkv
Формат                                   : Matroska
Версия формата                           : Version 2
Размер файла                             : 2,12 Гбайт
Продолжительность                        : 1 ч. 48 м.
Общий поток                              : 2807 Кбит/сек
Название фильма                          : 2.Хищник 2, 1990 (BDRip 1080p)+
Дата кодирования                         : UTC 2020-04-17 16:42:28
Программа кодирования                    : DVDFab 11.0.0.3
Библиотека кодирования                   : libebml v1.3.4 + libmatroska v1.4.5

Видео
Идентификатор                            : 1
Формат                                   : HEVC
Формат/Информация                        : High Efficiency Video Coding
Профиль формата                          : Main@L4@Main
Идентификатор кодека                     : V_MPEGH/ISO/HEVC
Продолжительность                        : 1 ч. 47 м.
Битрейт                                  : 2357 Кбит/сек
Ширина                                   : 1920 пикселей
Высота                                   : 1040 пикселей
Соотношение сторон                       : 1,85:1
Режим частоты кадров                     : Постоянный
Частота кадров                           : 23,976 (24000/1001) кадра/сек
Цветовое пространство                    : YUV
Субдискретизация насыщенности            : 4:2:0
Битовая глубина                          : 8 бит
Бит/(Пиксели*Кадры)                      : 0.049
Размер потока                            : 1,78 Гбайт (84%)
Default                                  : Да
Forced                                   : Нет
Цветовой диапазон                        : Limited
Основные цвета                           : BT.709
Характеристики трансфера                 : BT.709
Коэффициенты матрицы                     : BT.709

Аудио
Идентификатор                            : 2
Формат                                   : AC-3
Формат/Информация                        : Audio Coding 3
Коммерческое название                    : Dolby Digital
Идентификатор кодека                     : A_AC3
Продолжительность                        : 1 ч. 48 м.
Вид битрейта                             : Постоянный
Битрейт                                  : 448 Кбит/сек
Каналы                                   : 6 каналов
Channel layout                           : L R C LFE Ls Rs
Частота                                  : 48,0 КГц
Частота кадров                           : 31,250 кадров/сек (1536 SPF)
Битовая глубина                          : 16 бит
Метод сжатия                             : С потерями
Размер потока                            : 346 Мбайт (16%)
Язык                                     : Russian
ServiceKind/String                       : Complete Main
Default                                  : Да
Forced                                   : Нет

скриншот  скриншот  скриншот  
Чужой против Хищника / Alien vs. Predator
Год выпуска: 2004
Страна: США, Германия, Чехия, Великобритания
Жанр: фантастика, боевик
Продолжительность: 01:48:40
Перевод: Русский дубляж [Blu-ray CEE], MVO [присутствуют вставки с многоголосым переводом]
Субтитры: Нет
Режиссер: Пол У. С. Андерсон
В ролях: Санаа Лэтэн, Рауль Бова, Лэнс Хенриксен, Юэн Бремнер, Колин Сэлмон, Томми Флэнаган, Джозеф Рай, Агат Де Ла Булае, Карстен Норгаард, Сэм Тротон, Пётр Якл, Павел Бездек, Киран Бью, Карстен Войт, Ян Павел Филипенски, Адриан Буше, Энди Лукас, Лиз Мэй Брайс, Гленн Конрой, Оин МакКарти, Карима Эдебайб, Том Вудрафф мл., Иэн Уайт
Описание: Наши дни. Группа ученых отправляется в Антарктиду, чтобы отыскать колыбель цивилизации, царившей на Земле многие тысячелетия назад. Под толщей льда они находят пирамиды, в которых обнаруживают человеческие скелеты и следы жизнедеятельности чужих.Однако они еще не знают, что уже находятся под колпаком у хозяев этого города хищников, и их дни сочтены. Человеческая приманка поможет хищникам, наконец, завершить войну двух космических цивилизаций
Качество: BDRip 1080
Формат: MKV
Видео кодек: h.265
Аудио кодек: AC3
Видео: 1920x820, 23.976 fps, 1868 kbps
Аудио: AC3, 6 ch, 448 kb/s 48,0 KHz - Русский дубляж, MVO [присутствуют вставки с многоголосым переводом]

Код:

Общее
Уникальный идентификатор                 : 174467970975900887027160110914750491603 (0x83414F1842098C9FA202B6A67649ABD3)
Полное имя                               : 3.Чужой против Хищника, 2004 (BDRip 1080p).mkv
Формат                                   : Matroska
Версия формата                           : Version 2
Размер файла                             : 1,76 Гбайт
Продолжительность                        : 1 ч. 48 м.
Общий поток                              : 2318 Кбит/сек
Название фильма                          : 3.Чужой против Хищника, 2004 (BDRip 1080p)+
Дата кодирования                         : UTC 2020-04-17 16:48:25
Программа кодирования                    : DVDFab 11.0.0.3
Библиотека кодирования                   : libebml v1.3.4 + libmatroska v1.4.5

Видео
Идентификатор                            : 1
Формат                                   : HEVC
Формат/Информация                        : High Efficiency Video Coding
Профиль формата                          : Main@L4@Main
Идентификатор кодека                     : V_MPEGH/ISO/HEVC
Продолжительность                        : 1 ч. 48 м.
Битрейт                                  : 1868 Кбит/сек
Ширина                                   : 1920 пикселей
Высота                                   : 820 пикселей
Соотношение сторон                       : 2,35:1
Режим частоты кадров                     : Постоянный
Частота кадров                           : 23,976 (24000/1001) кадра/сек
Цветовое пространство                    : YUV
Субдискретизация насыщенности            : 4:2:0
Битовая глубина                          : 8 бит
Бит/(Пиксели*Кадры)                      : 0.049
Размер потока                            : 1,42 Гбайт (81%)
Default                                  : Да
Forced                                   : Нет
Цветовой диапазон                        : Limited
Основные цвета                           : BT.709
Характеристики трансфера                 : BT.709
Коэффициенты матрицы                     : BT.709

Аудио
Идентификатор                            : 2
Формат                                   : AC-3
Формат/Информация                        : Audio Coding 3
Коммерческое название                    : Dolby Digital
Идентификатор кодека                     : A_AC3
Продолжительность                        : 1 ч. 48 м.
Вид битрейта                             : Постоянный
Битрейт                                  : 448 Кбит/сек
Каналы                                   : 6 каналов
Channel layout                           : L R C LFE Ls Rs
Частота                                  : 48,0 КГц
Частота кадров                           : 31,250 кадров/сек (1536 SPF)
Битовая глубина                          : 16 бит
Метод сжатия                             : С потерями
Размер потока                            : 348 Мбайт (19%)
Язык                                     : Russian
ServiceKind/String                       : Complete Main
Default                                  : Да
Forced                                   : Нет

скриншот  скриншот  скриншот  
Чужие против Хищника: Реквием / Aliens Vs. Predator: Requiem
Год выпуска: 2007
Страна: США
Жанр: фантастика, боевик
Продолжительность: 01:41:04
Перевод: Русский дубляж [Blu-ray CEE]
Субтитры: Нет
Режиссер: Колин Штраус, Грег Штраус
В ролях: Стивен Паскуале, Рейко Эйлсворт, Джон Ортис, Джонни Льюис, Эриель Гейд, Кристен Хагер, Сэм Трэммелл, Роберт Джой, Дэвид Петкау, Том Вудрафф мл., Иэн Уайт, Чела Хорсдэл, Мешах Питерс, Мэтт Уорд, Михал Суханэк, Дэвид Хорнсби, Крис Мартин (II)
Описание: Атакованный Предалиеном, корабль Хищников терпит крушение в лесах, окружающих маленький техасский городок. И пока на сигнал о помощи, посланный в момент падения, спешит подкрепление, Чужие успевают инфицировать половину населения города.
Качество: BDRip 1080
Формат: MKV
Видео кодек: h.265
Аудио кодек: AC3
Видео: 1920x820, 23.976 fps, 1736 kbps
Аудио: AC3, 6 ch, 448 kb/s 48,0 KHz - Русский дубляж [Blu-ray CEE]

Код:

Общее
Уникальный идентификатор                 : 194249562745809594205481873865922751714 (0x92231ADE80CC9089A7F4A8016832ACE2)
Полное имя                               : 4.Чужие против Хищника. Реквием, 2007 (BDRip 1080p).mkv
Формат                                   : Matroska
Версия формата                           : Version 2
Размер файла                             : 1,54 Гбайт
Продолжительность                        : 1 ч. 41 м.
Общий поток                              : 2186 Кбит/сек
Название фильма                          : 4.Чужие против Хищника. Реквием, 2007 (BDRip 1080p)+
Дата кодирования                         : UTC 2020-04-17 16:53:16
Программа кодирования                    : DVDFab 11.0.0.3
Библиотека кодирования                   : libebml v1.3.4 + libmatroska v1.4.5

Видео
Идентификатор                            : 1
Формат                                   : HEVC
Формат/Информация                        : High Efficiency Video Coding
Профиль формата                          : Main@L4@Main
Идентификатор кодека                     : V_MPEGH/ISO/HEVC
Продолжительность                        : 1 ч. 41 м.
Битрейт                                  : 1736 Кбит/сек
Ширина                                   : 1920 пикселей
Высота                                   : 800 пикселей
Соотношение сторон                       : 2,40:1
Режим частоты кадров                     : Постоянный
Частота кадров                           : 23,976 (24000/1001) кадра/сек
Цветовое пространство                    : YUV
Субдискретизация насыщенности            : 4:2:0
Битовая глубина                          : 8 бит
Бит/(Пиксели*Кадры)                      : 0.047
Размер потока                            : 1,23 Гбайт (79%)
Default                                  : Да
Forced                                   : Нет
Цветовой диапазон                        : Limited
Основные цвета                           : BT.709
Характеристики трансфера                 : BT.709
Коэффициенты матрицы                     : BT.709

Аудио
Идентификатор                            : 2
Формат                                   : AC-3
Формат/Информация                        : Audio Coding 3
Коммерческое название                    : Dolby Digital
Идентификатор кодека                     : A_AC3
Продолжительность                        : 1 ч. 41 м.
Вид битрейта                             : Постоянный
Битрейт                                  : 448 Кбит/сек
Каналы                                   : 6 каналов
Channel layout                           : L R C LFE Ls Rs
Частота                                  : 48,0 КГц
Частота кадров                           : 31,250 кадров/сек (1536 SPF)
Битовая глубина                          : 16 бит
Метод сжатия                             : С потерями
Размер потока                            : 324 Мбайт (20%)
Язык                                     : Russian
ServiceKind/String                       : Complete Main
Default                                  : Да
Forced                                   : Нет

скриншот  скриншот  скриншот  
Хищники / Predators
Год выпуска: 2010
Страна: США
Жанр: фантастика, боевик
Продолжительность: 01:46:52
Перевод: Русский дубляж [Blu-ray CEE]
Субтитры: Нет
Режиссер: Нимрод Антал
В ролях: Эдриан Броуди, Тофер Грэйс, Алиси Брага, Уолтон Гоггинс, Олег Тактаров, Лоуренс Фишборн, Дэнни Трехо, Луис Одзава Чангчьен, Кэри Джонс, Махершала Али
Описание: Наемник Ройс невольно вынужден возглавить группу профессионалов, выполняющих загадочную миссию на неизвестной планете. За исключением опального доктора все они — хладнокровные убийцы: наемники, гангстеры, осужденные и участники отрядов смерти — людские «хищники». Но когда их начинает систематически преследовать и истреблять невообразимое чудовище, становится очевидно, что теперь они в роли своих жертв.
Качество: BDRip 1080
Формат: MKV
Видео кодек: h.265
Аудио кодек: AC3
Видео: 1920x816, 23.976 fps, 1856 kbps
Аудио: AC3, 6 ch, 448 kb/s 48,0 KHz - Русский дубляж [Blu-ray CEE]

Код:

Общее
Уникальный идентификатор                 : 250573733271508242432440450644561153692 (0xBC82BEE0D9C928C3837D1A7E5228CE9C)
Полное имя                               : 5.Хищники, 2010 (BDRip 1080p).mkv
Формат                                   : Matroska
Версия формата                           : Version 2
Размер файла                             : 1,72 Гбайт
Продолжительность                        : 1 ч. 46 м.
Общий поток                              : 2306 Кбит/сек
Название фильма                          : 5.Хищники, 2010 (BDRip 1080p)+
Дата кодирования                         : UTC 2020-04-17 16:57:32
Программа кодирования                    : DVDFab 11.0.0.3
Библиотека кодирования                   : libebml v1.3.4 + libmatroska v1.4.5

Видео
Идентификатор                            : 1
Формат                                   : HEVC
Формат/Информация                        : High Efficiency Video Coding
Профиль формата                          : Main@L4@Main
Идентификатор кодека                     : V_MPEGH/ISO/HEVC
Продолжительность                        : 1 ч. 46 м.
Битрейт                                  : 1856 Кбит/сек
Ширина                                   : 1920 пикселей
Высота                                   : 816 пикселей
Соотношение сторон                       : 2,35:1
Режим частоты кадров                     : Постоянный
Частота кадров                           : 23,976 (24000/1001) кадра/сек
Цветовое пространство                    : YUV
Субдискретизация насыщенности            : 4:2:0
Битовая глубина                          : 8 бит
Бит/(Пиксели*Кадры)                      : 0.049
Размер потока                            : 1,39 Гбайт (80%)
Default                                  : Да
Forced                                   : Нет
Цветовой диапазон                        : Limited
Основные цвета                           : BT.709
Характеристики трансфера                 : BT.709
Коэффициенты матрицы                     : BT.709

Аудио
Идентификатор                            : 2
Формат                                   : AC-3
Формат/Информация                        : Audio Coding 3
Коммерческое название                    : Dolby Digital
Идентификатор кодека                     : A_AC3
Продолжительность                        : 1 ч. 46 м.
Вид битрейта                             : Постоянный
Битрейт                                  : 448 Кбит/сек
Каналы                                   : 6 каналов
Channel layout                           : L R C LFE Ls Rs
Частота                                  : 48,0 КГц
Частота кадров                           : 31,250 кадров/сек (1536 SPF)
Битовая глубина                          : 16 бит
Метод сжатия                             : С потерями
Размер потока                            : 342 Мбайт (19%)
Язык                                     : Russian
ServiceKind/String                       : Complete Main
Default                                  : Да
Forced                                   : Нет

скриншот  скриншот  скриншот  
Хищник / Predator
Год выпуска: 2018
Страна: США, Канада
Жанр: фантастика, боевик
Продолжительность: 01:46:56
Перевод: Русский дубляж [Blu-ray CEE]
Субтитры: Нет
Режиссер: Шейн Блэк
В ролях: Бойд Холбрук, Треванте Роудс, Джейкоб Трамбле, Кигэн-Майкл Ки, Оливия Манн, Стерлинг К. Браун, Томас Джейн, Элфи Оуэн-Аллен, Августо Агилера, Джейк Бьюзи
Описание: Главный герой, бывший военный, обнаруживает злобную инопланетную расу на Земле, но никто не верит ему, что эти твари существуют. Его сын-аутист, которого все обижают в школе, становится ключевой фигурой в схватке с Хищниками, поскольку мальчик умеет невероятно быстро учить языки и, судя по всему, сможет понять пришельцев.
Качество: BDRip 1080
Формат: MKV
Видео кодек: h.265
Аудио кодек: AC3
Видео: 1920x804, 23.976 fps, 1862 kbps
Аудио: AC3, 6 ch, 448 kb/s 48,0 KHz - Русский дубляж [Blu-ray CEE]

Код:

Общее
Уникальный идентификатор                 : 198871315442842488481774894317660199520 (0x959D38DEC384D78182D176637C7EDA60)
Полное имя                               : 6.Хищник, 2018 (BDRip 1080p).mkv
Формат                                   : Matroska
Версия формата                           : Version 2
Размер файла                             : 1,73 Гбайт
Продолжительность                        : 1 ч. 46 м.
Общий поток                              : 2312 Кбит/сек
Название фильма                          : 6.Хищник, 2018 (BDRip 1080p)+
Дата кодирования                         : UTC 2020-04-17 17:02:13
Программа кодирования                    : DVDFab 11.0.0.3
Библиотека кодирования                   : libebml v1.3.4 + libmatroska v1.4.5

Видео
Идентификатор                            : 1
Формат                                   : HEVC
Формат/Информация                        : High Efficiency Video Coding
Профиль формата                          : Main@L4@Main
Идентификатор кодека                     : V_MPEGH/ISO/HEVC
Продолжительность                        : 1 ч. 46 м.
Битрейт                                  : 1862 Кбит/сек
Ширина                                   : 1920 пикселей
Высота                                   : 804 пикселя
Соотношение сторон                       : 2,40:1
Режим частоты кадров                     : Постоянный
Частота кадров                           : 23,976 (24000/1001) кадра/сек
Цветовое пространство                    : YUV
Субдискретизация насыщенности            : 4:2:0
Битовая глубина                          : 8 бит
Бит/(Пиксели*Кадры)                      : 0.050
Размер потока                            : 1,39 Гбайт (81%)
Default                                  : Да
Forced                                   : Нет
Цветовой диапазон                        : Limited
Основные цвета                           : BT.709
Характеристики трансфера                 : BT.709
Коэффициенты матрицы                     : BT.709

Аудио
Идентификатор                            : 2
Формат                                   : AC-3
Формат/Информация                        : Audio Coding 3
Коммерческое название                    : Dolby Digital
Идентификатор кодека                     : A_AC3
Продолжительность                        : 1 ч. 46 м.
Вид битрейта                             : Постоянный
Битрейт                                  : 448 Кбит/сек
Каналы                                   : 6 каналов
Channel layout                           : L R C LFE Ls Rs
Частота                                  : 48,0 КГц
Частота кадров                           : 31,250 кадров/сек (1536 SPF)
Битовая глубина                          : 16 бит
Метод сжатия                             : С потерями
Размер потока                            : 343 Мбайт (19%)
Язык                                     : Russian
ServiceKind/String                       : Complete Main
Default                                  : Да
Forced                                   : Нет

скриншот  скриншот  скриншот  
pb.wtf



Скачать Хищник. Коллекция через торрент https://i111.fastpic.ru/big/2020/0418/7c/066b6d92210767f75234eddc444efa7c.jpg Скачать, смотреть онлайн Хищник. Коллекция бесплантно в хорошем качестве Описание: Американский вертолет был сбит партизанами в Южной Америке. Оставшийся в живых экипаж находится в плену. Центральное ... 10 10 20
Info! Золотая раздача, скачанное не засчитывается.
Торрент: Зарегистрирован [2020-04-18 12:38] · скачан: 133 раз
Статус: √ проверено
Размер: 11.02 GB
Как cкачать? Как скачать Хищник. Коллекция через торрент | UTorrent

% Раздел Тема Автор DL S | L
Сборники (HD Video) [ 86.17 GB ] Хищник: Коллекция / Predator: Collection [1987-2018 BDRip 1080p] DUB+MVO+DVO+AVO bober100 Скачать
1 | 0


Последний раз редактировалось: nobana (2020-04-30 11:34), всего редактировалось 6 раз(а)

28-11-2019 20:33  

Отключить всю рекламу на сайте

18-04-2020 12:41 Хищник. Коллекция Скачать торрент  

Пусть вас не смущает размер файлов - картинка отличная. Проверено на https://catalog.onliner.by/tv/lg/49sk8500plapb.wtf



18-04-2020 13:02 Хищник. Коллекция Скачать торрент  

На раздачу кто нибудь встанет?pb.wtf



15-04-2021 07:40 Хищник. Коллекция Скачать торрент  

я так понимаю....это мертвый торрент, и ждать чуда здесь не стоит.... хех.... такие "золотые" раздачи надо бы удалять...pb.wtf



    Дорогой пользователь! Огромная просьба, поблагодарите релизера, оцените раздачу и оставьте свои комментарий, если Вы скачали Хищник. Коллекция через торрент бесплатно!
    Комментировать посты могут только пользователи прошедшие не сложную регистрацию
    Показать сообщения:    

    Хищник. Коллекция через торрент
    Скачать бесплатно Хищник. Коллекция
    Хищник. Коллекция скачать торрент
    Хищник. Коллекция смотреть онлайн
    Cкачать фильм Хищник. Коллекция бесплатно
    Хищник. Коллекция скачать торрент в хорошем качестве
    Хищник. Коллекция смотреть онлайн бесплатно в хорошем качестве


    Вы не можете начинать темы
    Вы не можете отвечать на сообщения
    Вы не можете редактировать свои сообщения
    Вы не можете удалять свои сообщения
    Вы не можете голосовать в опросах
    Вы не можете прикреплять файлы к сообщениям
    Вы можете скачивать файлы