Всегда рабочее зеркало без VPN и Proxy просто перед .vidak.icu напиши любое слово или цифру, Пример http://9xhw.vidak.icu

iTunes

2 сезон

1 сезон

1

1 сезон

iTunes

2 сезон

13

1 сезон

Deluxe

pack

Рекомендуем

Пиратка

30

ВАЖНО

RePack

MK11

RePack

jed

RePack

fifa19

RePack

RDR2

RePack

NEED FOR SPEED™ PAYBACK

Кинопоиск HD

6 сезон

 Острые козырьки 6 сезон

Все сериалы

все сериалы на PB.wtf

RePack

FAR CRY 5

Anonymous, нам критически не хватает 5601 руб. на оплату серверов и переферии за Апрель, помоги нам пожалуйста, вся надежда только на тебя. В благодарность мы отключим тебе всю рекламу на сайте!

×
  
Magnet ссылка

Хищник: Коллекция / Predator: Collection [1987-2018, BDRip 1080p] DUB+MVO+DVO+AVO pb.wtf

Хищник: Коллекция через торрент pb.wtf

Размер: 86.17 GB | Добавлен: 2 года 1 мес. назад | Торрент скачан:98 раз
Смотреть онлайн Хищник: Коллекция | Скачать    Ребята, помогите собрать деньги на оплату серверов!!!

18-04-2020 14:59 Хищник: Коллекция Скачать торрент  

Хищник: Коллекция / Predator: Collection
Год выпуска: 1987-2018
Перевод: Дублированный, Профессиональный (многоголосый, закадровый), Профессиональный двухголосый, авторский

Качество: BDRip 1080p
Хищник
Predator

«In this movie, Arnold will experience every meaning of the word '' Pain ''»

Год выпуска: 1987
Страна: США, Мексика
Студия: 20th Century Fox Film Corporation
Жанр: Фантастика, триллер, приключения
Продолжительность: 01:46:35

Перевод: Дубляж, многоголосый закадровый, двухголосый закадровый, авторский

Режиссер: Джон МакТирнан
В ролях: Арнольд Шварценеггер, Карл Уэзерс, Элпидия Каррильо, Билл Дьюк, Джесси Вентура, Сонни Лэндэм, Ричард Чавес, Р.Г. Армстронг, Шейн Блэк, Кевин Питер Холл

Описание: Американский вертолет был сбит партизанами в Южной Америке. Оставшийся в живых экипаж находится в плену. Центральное разведывательное управление США бросает свои лучшие силы для освобождения американских граждан. Элитная группа спецназа во главе с Датчем была заброшена в южноамериканские джунгли.

rating

Кодек: H264
Качество: BDRip 1080p
Видео: MPEG-4 AVC, 1920x1080, 13700 Кбит/с, 23.976 fps
Аудио 1: Русский, AC3, 6 ch, 640 Кбит/с Дубляж, Custom
Аудио 2: Русский, AC3, 6 ch, 448 Кбит/с Дубляж, Blu-ray CEE
Аудио 3: Русский, AC3, 6 ch, 640 Кбит/с Многоголосый закадровый Киномания
Аудио 4: Русский, AC3, 6 ch, 384 Кбит/с Многоголосый закадровый Гемини (R5)
Аудио 5: Русский, AC3, 2 ch, 256 Кбит/с Многоголосый закадровый НТВ
Аудио 6: Русский, AC3, 2 ch, 192 Кбит/с Многоголосый закадровый ОРТ
Аудио 7: Русский, AC3, 6 ch, 640 Кбит/с Двухголосый закадровый П.Гланц и И.Королева
Аудио 8: Русский, AC3, 6 ch, 640 Кбит/с Одноголосый закадровый А. Гаврилов
Аудио 9: Русский, AC3, 6 ch, 640 Кбит/с Одноголосый закадровый, Ю.Живов
Аудио 10: Русский, AC3, 6 ch, 640 Кбит/с Одноголосый закадровый, Д.Пучков
Аудио 11: Русский, AC3, 2 ch, 256 Кбит/с Одноголосый закадровый А. Гаврилов (VHS)
Аудио 12: Русский, AC3, 2 ch, 256 Кбит/с Одноголосый закадровый В. Горчаков
Аудио 13: Русский, AC3, 2 ch, 256 Кбит/с Одноголосый закадровый В. Дохалов
Аудио 14: Русский, AC3, 2 ch, 256 Кбит/с Одноголосый закадровый М. Латышев
Аудио 15: Русский, AC3, 2 ch, 256 Кбит/с Одноголосый закадровый Г. Либергал
Аудио 16: Русский, AC3, 2 ch, 192 Кбит/с Одноголосый закадровый Б. Федоров
Аудио 17: Английский, AC3, 6 ch, 640 Кбит/с Оригинал
Субтитры: Русские, английские
Главы: Есть

Цитата:

Кто-то писал:
Аудиo №1 сделана из оригинальной DTS-HD MA дорожки и дублированной Dolby Digital дорожки путём замены всех участков с английской речью, отголосками и эхом на аналогичные с дублированной дорожки во всех каналах и прочими редакторскими правками! Спасибо Кинотон

скриншот  скриншот  скриншот  скриншот  скриншот  

x264 [info]: frame I:963 Avg QP:14.18 size:256023
x264 [info]: frame P:48017 Avg QP:16.42 size:117802
x264 [info]: frame B:104285 Avg QP:17.53 size: 48305

Общее
Уникальный идентификатор : 203719162368797562093231625857448015836 (0x9942E22D64D3ABFB9B297A82418FF7DC)
Полное имя : I:Хищник Коллекция1 Хищник 1987г. BDRip 1080p.mkv
Формат : Matroska
Версия формата : Version 2
Размер файла : 15,3 Гбайт
Продолжительность : 1 ч. 46 м.
Общий поток : 20,5 Мбит/сек
Название фильма : mister.hats
Дата кодирования : UTC 2020-03-23 17:36:51
Программа кодирования : mkvmerge v5.8.0 ('No Sleep / Pillow') built on Sep 2 2012 15:37:04
Библиотека кодирования : libebml v1.2.3 + libmatroska v1.3.0

Видео
Идентификатор : 1
Формат : AVC
Формат/Информация : Advanced Video Codec
Профиль формата : High@L4.1
Настройки формата : CABAC / 4 Ref Frames
Параметр CABAC формата : Да
Параметр RefFrames формата : 4 кадра
Идентификатор кодека : V_MPEG4/ISO/AVC
Продолжительность : 1 ч. 46 м.
Битрейт : 13,7 Мбит/сек
Ширина : 1920 пикселей
Высота : 1080 пикселей
Соотношение сторон : 16:9
Режим частоты кадров : Постоянный
Частота кадров : 23,976 (24000/1001) кадра/сек
Цветовое пространство : YUV
Субдискретизация насыщенности : 4:2:0
Битовая глубина : 8 бит
Тип развёртки : Прогрессивная
Бит/(Пиксели*Кадры) : 0.276
Размер потока : 9,88 Гбайт (65%)
Библиотека кодирования : x264 core 152 r2851kMod ba24899
Настройки программы : cabac=1 / ref=4 / deblock=1:-3:-3 / analyse=0x3:0x113 / me=umh / subme=11 / psy=1 / fade_compensate=0.00 / psy_rd=1.00:0.00 / mixed_ref=1 / me_range=48 / chroma_me=1 / trellis=2 / 8x8dct=1 / cqm=0 / deadzone=21,11 / fast_pskip=0 / chroma_qp_offset=-2 / threads=12 / lookahead_threads=3 / sliced_threads=0 / nr=0 / decimate=0 / interlaced=0 / bluray_compat=0 / constrained_intra=0 / bframes=11 / b_pyramid=2 / b_adapt=2 / b_bias=0 / direct=3 / weightb=1 / open_gop=0 / weightp=2 / keyint=240 / keyint_min=23 / scenecut=40 / intra_refresh=0 / rc_lookahead=40 / rc=2pass / mbtree=0 / bitrate=13700 / ratetol=1.0 / qcomp=0.60 / qpmin=0 / qpmax=39 / qpstep=4 / cplxblur=20.0 / qblur=0.5 / vbv_maxrate=50000 / vbv_bufsize=62500 / nal_hrd=none / filler=0 / ip_ratio=1.25 / pb_ratio=1.30 / aq=1:0.80
Язык : English
Default : Да
Forced : Нет
Цветовой диапазон : Limited
Основные цвета : BT.709
Характеристики трансфера : BT.709
Коэффициенты матрицы : BT.709

Аудио #1
Идентификатор : 2
Формат : AC-3
Формат/Информация : Audio Coding 3
Параметр Endianness формата : Big
Идентификатор кодека : A_AC3
Продолжительность : 1 ч. 46 м.
Вид битрейта : Постоянный
Битрейт : 640 Кбит/сек
Каналы : 6 каналов
Расположение каналов : Front: L C R, Side: L R, LFE
Частота : 48,0 КГц
Частота кадров : 31,250 кадров/сек (1536 SPF)
Битовая глубина : 16 бит
Метод сжатия : С потерями
Размер потока : 488 Мбайт (3%)
Заголовок : Дубляж, Custom
Язык : Russian
Default : Да
Forced : Нет

Аудио #2
Идентификатор : 3
Формат : AC-3
Формат/Информация : Audio Coding 3
Параметр Endianness формата : Big
Идентификатор кодека : A_AC3
Продолжительность : 1 ч. 46 м.
Вид битрейта : Постоянный
Битрейт : 448 Кбит/сек
Каналы : 6 каналов
Расположение каналов : Front: L C R, Side: L R, LFE
Частота : 48,0 КГц
Частота кадров : 31,250 кадров/сек (1536 SPF)
Битовая глубина : 16 бит
Метод сжатия : С потерями
Размер потока : 342 Мбайт (2%)
Заголовок : Дубляж, Blu-ray CEE
Язык : Russian
Default : Нет
Forced : Нет

Аудио #3
Идентификатор : 4
Формат : AC-3
Формат/Информация : Audio Coding 3
Параметр Endianness формата : Big
Идентификатор кодека : A_AC3
Продолжительность : 1 ч. 46 м.
Вид битрейта : Постоянный
Битрейт : 640 Кбит/сек
Каналы : 6 каналов
Расположение каналов : Front: L C R, Side: L R, LFE
Частота : 48,0 КГц
Частота кадров : 31,250 кадров/сек (1536 SPF)
Битовая глубина : 16 бит
Метод сжатия : С потерями
Размер потока : 488 Мбайт (3%)
Заголовок : Многоголосый закадровый Киномания
Язык : Russian
Default : Нет
Forced : Нет

Аудио #4
Идентификатор : 5
Формат : AC-3
Формат/Информация : Audio Coding 3
Параметр Endianness формата : Big
Идентификатор кодека : A_AC3
Продолжительность : 1 ч. 46 м.
Вид битрейта : Постоянный
Битрейт : 384 Кбит/сек
Каналы : 6 каналов
Расположение каналов : Front: L C R, Side: L R, LFE
Частота : 48,0 КГц
Частота кадров : 31,250 кадров/сек (1536 SPF)
Битовая глубина : 16 бит
Метод сжатия : С потерями
Размер потока : 293 Мбайт (2%)
Заголовок : Многоголосый закадровый Гемини (R5)
Язык : Russian
Default : Нет
Forced : Нет

Аудио #5
Идентификатор : 6
Формат : AC-3
Формат/Информация : Audio Coding 3
Параметр Endianness формата : Big
Идентификатор кодека : A_AC3
Продолжительность : 1 ч. 46 м.
Вид битрейта : Постоянный
Битрейт : 256 Кбит/сек
Каналы : 2 канала
Расположение каналов : Front: L R
Частота : 48,0 КГц
Частота кадров : 31,250 кадров/сек (1536 SPF)
Битовая глубина : 16 бит
Метод сжатия : С потерями
Размер потока : 195 Мбайт (1%)
Заголовок : Многоголосый закадровый НТВ
Язык : Russian
Default : Нет
Forced : Нет

Аудио #6
Идентификатор : 7
Формат : AC-3
Формат/Информация : Audio Coding 3
Параметр Endianness формата : Big
Идентификатор кодека : A_AC3
Продолжительность : 1 ч. 46 м.
Вид битрейта : Постоянный
Битрейт : 192 Кбит/сек
Каналы : 2 канала
Расположение каналов : Front: L R
Частота : 48,0 КГц
Частота кадров : 31,250 кадров/сек (1536 SPF)
Битовая глубина : 16 бит
Метод сжатия : С потерями
Размер потока : 146 Мбайт (1%)
Заголовок : Многоголосый закадровый ОРТ
Язык : Russian
Default : Нет
Forced : Нет

Аудио #7
Идентификатор : 8
Формат : AC-3
Формат/Информация : Audio Coding 3
Параметр Endianness формата : Big
Идентификатор кодека : A_AC3
Продолжительность : 1 ч. 46 м.
Вид битрейта : Постоянный
Битрейт : 640 Кбит/сек
Каналы : 6 каналов
Расположение каналов : Front: L C R, Side: L R, LFE
Частота : 48,0 КГц
Частота кадров : 31,250 кадров/сек (1536 SPF)
Битовая глубина : 16 бит
Метод сжатия : С потерями
Размер потока : 488 Мбайт (3%)
Заголовок : Двухголосый закадровый П.Гланц и И.Королева
Язык : Russian
Default : Нет
Forced : Нет

Аудио #8
Идентификатор : 9
Формат : AC-3
Формат/Информация : Audio Coding 3
Параметр Endianness формата : Big
Идентификатор кодека : A_AC3
Продолжительность : 1 ч. 46 м.
Вид битрейта : Постоянный
Битрейт : 640 Кбит/сек
Каналы : 6 каналов
Расположение каналов : Front: L C R, Side: L R, LFE
Частота : 48,0 КГц
Частота кадров : 31,250 кадров/сек (1536 SPF)
Битовая глубина : 16 бит
Метод сжатия : С потерями
Размер потока : 488 Мбайт (3%)
Заголовок : Одноголосый закадровый А. Гаврилов
Язык : Russian
Default : Нет
Forced : Нет

Аудио #9
Идентификатор : 10
Формат : AC-3
Формат/Информация : Audio Coding 3
Параметр Endianness формата : Big
Идентификатор кодека : A_AC3
Продолжительность : 1 ч. 46 м.
Вид битрейта : Постоянный
Битрейт : 256 Кбит/сек
Каналы : 2 канала
Расположение каналов : Front: L R
Частота : 48,0 КГц
Частота кадров : 31,250 кадров/сек (1536 SPF)
Битовая глубина : 16 бит
Метод сжатия : С потерями
Размер потока : 195 Мбайт (1%)
Заголовок : Одноголосый закадровый, Ю.Живов
Язык : Russian
Default : Нет
Forced : Нет

Аудио #10
Идентификатор : 11
Формат : AC-3
Формат/Информация : Audio Coding 3
Параметр Endianness формата : Big
Идентификатор кодека : A_AC3
Продолжительность : 1 ч. 46 м.
Вид битрейта : Постоянный
Битрейт : 640 Кбит/сек
Каналы : 6 каналов
Расположение каналов : Front: L C R, Side: L R, LFE
Частота : 48,0 КГц
Частота кадров : 31,250 кадров/сек (1536 SPF)
Битовая глубина : 16 бит
Метод сжатия : С потерями
Размер потока : 488 Мбайт (3%)
Заголовок : Одноголосый закадровый, Д.Пучков
Язык : Russian
Default : Нет
Forced : Нет

Аудио #11
Идентификатор : 12
Формат : AC-3
Формат/Информация : Audio Coding 3
Параметр Endianness формата : Big
Идентификатор кодека : A_AC3
Продолжительность : 1 ч. 46 м.
Вид битрейта : Постоянный
Битрейт : 256 Кбит/сек
Каналы : 2 канала
Расположение каналов : Front: L R
Частота : 48,0 КГц
Частота кадров : 31,250 кадров/сек (1536 SPF)
Битовая глубина : 16 бит
Метод сжатия : С потерями
Размер потока : 195 Мбайт (1%)
Заголовок : Одноголосый закадровый А. Гаврилов (VHS)
Язык : Russian
Default : Нет
Forced : Нет

Аудио #12
Идентификатор : 13
Формат : AC-3
Формат/Информация : Audio Coding 3
Параметр Endianness формата : Big
Идентификатор кодека : A_AC3
Продолжительность : 1 ч. 46 м.
Вид битрейта : Постоянный
Битрейт : 256 Кбит/сек
Каналы : 2 канала
Расположение каналов : Front: L R
Частота : 48,0 КГц
Частота кадров : 31,250 кадров/сек (1536 SPF)
Битовая глубина : 16 бит
Метод сжатия : С потерями
Размер потока : 195 Мбайт (1%)
Заголовок : Одноголосый закадровый В. Горчаков
Язык : Russian
Default : Нет
Forced : Нет

Аудио #13
Идентификатор : 14
Формат : AC-3
Формат/Информация : Audio Coding 3
Параметр Endianness формата : Big
Идентификатор кодека : A_AC3
Продолжительность : 1 ч. 46 м.
Вид битрейта : Постоянный
Битрейт : 256 Кбит/сек
Каналы : 2 канала
Расположение каналов : Front: L R
Частота : 48,0 КГц
Частота кадров : 31,250 кадров/сек (1536 SPF)
Битовая глубина : 16 бит
Метод сжатия : С потерями
Размер потока : 195 Мбайт (1%)
Заголовок : Одноголосый закадровый В. Дохалов
Язык : Russian
Default : Нет
Forced : Нет

Аудио #14
Идентификатор : 15
Формат : AC-3
Формат/Информация : Audio Coding 3
Параметр Endianness формата : Big
Идентификатор кодека : A_AC3
Продолжительность : 1 ч. 46 м.
Вид битрейта : Постоянный
Битрейт : 256 Кбит/сек
Каналы : 2 канала
Расположение каналов : Front: L R
Частота : 48,0 КГц
Частота кадров : 31,250 кадров/сек (1536 SPF)
Битовая глубина : 16 бит
Метод сжатия : С потерями
Размер потока : 195 Мбайт (1%)
Заголовок : Одноголосый закадровый М. Латышев
Язык : Russian
Default : Нет
Forced : Нет

Аудио #15
Идентификатор : 16
Формат : AC-3
Формат/Информация : Audio Coding 3
Параметр Endianness формата : Big
Идентификатор кодека : A_AC3
Продолжительность : 1 ч. 46 м.
Вид битрейта : Постоянный
Битрейт : 256 Кбит/сек
Каналы : 2 канала
Расположение каналов : Front: L R
Частота : 48,0 КГц
Частота кадров : 31,250 кадров/сек (1536 SPF)
Битовая глубина : 16 бит
Метод сжатия : С потерями
Размер потока : 195 Мбайт (1%)
Заголовок : Одноголосый закадровый Г. Либергал
Язык : Russian
Default : Нет
Forced : Нет

Аудио #16
Идентификатор : 17
Формат : AC-3
Формат/Информация : Audio Coding 3
Параметр Endianness формата : Big
Идентификатор кодека : A_AC3
Продолжительность : 1 ч. 46 м.
Вид битрейта : Постоянный
Битрейт : 192 Кбит/сек
Каналы : 2 канала
Расположение каналов : Front: L R
Частота : 48,0 КГц
Частота кадров : 31,250 кадров/сек (1536 SPF)
Битовая глубина : 16 бит
Метод сжатия : С потерями
Размер потока : 146 Мбайт (1%)
Заголовок : Одноголосый закадровый Б. Федоров
Язык : Russian
Default : Нет
Forced : Нет

Аудио #17
Идентификатор : 18
Формат : AC-3
Формат/Информация : Audio Coding 3
Параметр Endianness формата : Big
Идентификатор кодека : A_AC3
Продолжительность : 1 ч. 46 м.
Вид битрейта : Постоянный
Битрейт : 640 Кбит/сек
Каналы : 6 каналов
Расположение каналов : Front: L C R, Side: L R, LFE
Частота : 48,0 КГц
Частота кадров : 31,250 кадров/сек (1536 SPF)
Битовая глубина : 16 бит
Метод сжатия : С потерями
Размер потока : 488 Мбайт (3%)
Заголовок : Оригинал
Язык : English
Default : Нет
Forced : Нет

Текст #1
Идентификатор : 19
Формат : UTF-8
Идентификатор кодека : S_TEXT/UTF8
Идентификатор кодека/Информация : UTF-8 Plain Text
Заголовок : BD CEE Full
Язык : Russian
Default : Нет
Forced : Нет

Текст #2
Идентификатор : 20
Формат : UTF-8
Идентификатор кодека : S_TEXT/UTF8
Идентификатор кодека/Информация : UTF-8 Plain Text
Заголовок : Гоблин-Пучков
Язык : Russian
Default : Нет
Forced : Нет

Текст #3
Идентификатор : 21
Формат : UTF-8
Идентификатор кодека : S_TEXT/UTF8
Идентификатор кодека/Информация : UTF-8 Plain Text
Язык : English
Default : Нет
Forced : Нет

Меню
00:00:00.000 : :1. The Invaders (Main Titles)
00:04:03.285 : :2. The Professionals
00:06:28.638 : :3. Schaefer's Team
00:10:31.464 : :4. Death in the Jungle
00:18:20.182 : :5. The Watcher
00:20:20.553 : :6. The Rebel Camp
00:27:51.336 : :7. Set Up
00:31:03.278 : :8. The Stalker
00:34:52.716 : :9. The Only Way Out
00:37:48.600 : :10. Something in the Trees
00:40:59.832 : :11. The Living Jungle
00:46:32.373 : :12. Another Kill
00:53:07.643 : :13. There's Something Out There
01:01:36.359 : :14. The Stand
01:04:07.719 : :15. The Demon
01:08:08.876 : :16. Two for the Kill
01:14:09.320 : :17. Billy's Last Stand
01:15:49.170 : :18. Dutch and the Demon
01:18:26.327 : :19. The Alien's Weakness
01:20:54.725 : :20. The Trap and the Trophies
01:25:08.228 : :21. The Challenge
01:34:30.790 : :22. One Ugly
01:35:48.076 : :23. Duel
01:39:57.617 : :24. The Last Laugh
01:42:55.169 : :25. End Titles
Хищник 2
Predator 2

«Безмолвный. Невидимый. Непобедимый. Приходит в город, чтобы утолить свою жажду убивать»

Год выпуска: 1990
Страна: США
Студия: 20th Century Fox Film Corporation, Davis Entertainment, Lawrence Gordon Productions, Silver Pictures
Жанр: Фэнтастика, боевик, триллер
Продолжительность: 01:48:00
Перевод: Дубляж, профессиональный многоголосый, профессиональный двухголосый, авторский

Режиссер: Стивен Хопкинс
В ролях: Дэнни Гловер, Гэри Бьюзи, Рубен Бладес, Мария Кончита Алонсо, Билл Пэкстон, Роберт Дави, Кевин Питер Холл, Адам Болдуин, Кент МакКорд, Мортон Дауни мл.

Описание: Харриган — крутой полицейский отдела по борьбе с наркотиками полиции Лос-Анджелеса. Ему поручено расследование серии убийств крупных криминальных авторитетов города. Все убийства совершены в извращенной форме и пахнут неприкрытым садизмом. После проведения экспертиз и расследований становится ясно, что убийство — дело рук существа, не имеющего ничего общего с человеком.
Землю опять посетил межпланетный охотник, но ему придется столкнуться с существом еще более опасным, чем он сам — с человеком. Харриган выслеживает охотника, постепенно сам становясь охотником. Один на один, как настоящий воин, он ведет бескомпромиссную битву за сохранение чести и права человека не быть существом, на которое можно охотиться.

rating

Кодек: H264
Качество: BDRip 1080p
Видео: MPEG-4 AVC, 1920x1040, 16000 Кбит/с, 23.976 fps
Аудио 1: Русский, AC3, 6 ch, 640 Кбит/с Дубляж, Custom
Аудио 2: Русский, AC3, 6 ch, 448 Кбит/с Дубляж, Blu-ray CEE
Аудио 3: Русский, AC3, 2 ch, 192 Кбит/с Дубляж, Киностудия им. Горького
Аудио 4: Русский, AC3, 6 ch, 448 Кбит/с Многоголосый закадровый, R5
Аудио 5: Русский, AC3, 6 ch, 384 Кбит/с Многоголосый закадровый, Киномания
Аудио 6: Русский, AC3, 2 ch, 192 Кбит/с Многоголосый закадровый, OPT
Аудио 7: Русский, AC3, 2 ch, 192 Кбит/с Двухголосый закадровый, Премьер-Видео
Аудио 8: Русский, AC3, 2 ch, 192 Кбит/с Двухголосый закадровый, НТВ
Аудио 9: Русский, AC3, 6 ch, 640 Кбит/с Двухголосый закадровый, П.Гланц и И.Королева
Аудио 10: Русский, AC3, 6 ch, 448 Кбит/с Одноголосый закадровый, А.Гаврилов
Аудио 11: Русский, AC3, 6 ch, 384 Кбит/с Одноголосый закадровый, В.Горчаков
Аудио 12: Русский, AC3, 6 ch, 448 Кбит/с Одноголосый закадровый, К. Поздняков
Аудио 13: Русский, AC3, 6 ch, 448 Кбит/с Одноголосый закадровый, П. Прямостанов
Аудио 14: Русский, AC3, 2 ch, 192 Кбит/с Одноголосый закадровый, Готлиб
Аудио 15: Английский, AC3, 6 ch, 640 Кбит/с Оригинал
Субтитры: Русские, английские
Главы: Есть

Цитата:

Цитата
Кто-то писал:
Аудиo №1 сделана из оригинальной DTS-HD MA дорожки и дублированной Dolby Digital дорожки путём замены всех участков с английской речью, отголосками и эхом на аналогичные с дублированной дорожки во всех каналах и прочими редакторскими правками! Спасибо krat11

скриншот  скриншот  скриншот  скриншот  скриншот  

x264 [info]: frame I:850 Avg QP:14.50 size:178855
x264 [info]: frame P:41932 Avg QP:16.10 size:125757
x264 [info]: frame B:112583 Avg QP:17.65 size: 66878

Общее
Уникальный идентификатор : 224521805970015849058099435510340318315 (0xA8E953B196FDBC69A6A575A5DC2CF46B)
Полное имя : I:Хищник Коллекция2 Хищник 2 1990г. BDRip 1080p.mkv
Формат : Matroska
Версия формата : Version 2
Размер файла : 16,3 Гбайт
Продолжительность : 1 ч. 48 м.
Общий поток : 21,6 Мбит/сек
Название фильма : mister.hats
Дата кодирования : UTC 2020-03-23 19:56:04
Программа кодирования : mkvmerge v5.8.0 ('No Sleep / Pillow') built on Sep 2 2012 15:37:04
Библиотека кодирования : libebml v1.2.3 + libmatroska v1.3.0

Видео
Идентификатор : 1
Формат : AVC
Формат/Информация : Advanced Video Codec
Профиль формата : High@L4.1
Настройки формата : CABAC / 4 Ref Frames
Параметр CABAC формата : Да
Параметр RefFrames формата : 4 кадра
Идентификатор кодека : V_MPEG4/ISO/AVC
Продолжительность : 1 ч. 48 м.
Битрейт : 16,0 Мбит/сек
Ширина : 1920 пикселей
Высота : 1040 пикселей
Соотношение сторон : 1,85:1
Режим частоты кадров : Постоянный
Частота кадров : 23,976 (24000/1001) кадра/сек
Цветовое пространство : YUV
Субдискретизация насыщенности : 4:2:0
Битовая глубина : 8 бит
Тип развёртки : Прогрессивная
Бит/(Пиксели*Кадры) : 0.334
Размер потока : 11,7 Гбайт (72%)
Библиотека кодирования : x264 core 152 r2851kMod ba24899
Настройки программы : cabac=1 / ref=4 / deblock=1:-3:-3 / analyse=0x3:0x113 / me=umh / subme=11 / psy=1 / fade_compensate=0.00 / psy_rd=1.00:0.00 / mixed_ref=1 / me_range=48 / chroma_me=1 / trellis=2 / 8x8dct=1 / cqm=0 / deadzone=21,11 / fast_pskip=0 / chroma_qp_offset=-2 / threads=12 / lookahead_threads=3 / sliced_threads=0 / nr=0 / decimate=0 / interlaced=0 / bluray_compat=0 / constrained_intra=0 / bframes=11 / b_pyramid=2 / b_adapt=2 / b_bias=0 / direct=3 / weightb=1 / open_gop=0 / weightp=2 / keyint=240 / keyint_min=23 / scenecut=40 / intra_refresh=0 / rc_lookahead=40 / rc=2pass / mbtree=0 / bitrate=16000 / ratetol=1.0 / qcomp=0.60 / qpmin=0 / qpmax=39 / qpstep=4 / cplxblur=20.0 / qblur=0.5 / vbv_maxrate=50000 / vbv_bufsize=62500 / nal_hrd=none / filler=0 / ip_ratio=1.25 / pb_ratio=1.30 / aq=1:0.90
Язык : English
Default : Да
Forced : Нет
Цветовой диапазон : Limited
Основные цвета : BT.709
Характеристики трансфера : BT.709
Коэффициенты матрицы : BT.709

Аудио #1
Идентификатор : 2
Формат : AC-3
Формат/Информация : Audio Coding 3
Параметр Endianness формата : Big
Идентификатор кодека : A_AC3
Продолжительность : 1 ч. 48 м.
Вид битрейта : Постоянный
Битрейт : 640 Кбит/сек
Каналы : 6 каналов
Расположение каналов : Front: L C R, Side: L R, LFE
Частота : 48,0 КГц
Частота кадров : 31,250 кадров/сек (1536 SPF)
Битовая глубина : 16 бит
Метод сжатия : С потерями
Размер потока : 494 Мбайт (3%)
Заголовок : Дубляж, Custom
Язык : Russian
Default : Да
Forced : Нет

Аудио #2
Идентификатор : 3
Формат : AC-3
Формат/Информация : Audio Coding 3
Параметр Endianness формата : Big
Идентификатор кодека : A_AC3
Продолжительность : 1 ч. 48 м.
Вид битрейта : Постоянный
Битрейт : 448 Кбит/сек
Каналы : 6 каналов
Расположение каналов : Front: L C R, Side: L R, LFE
Частота : 48,0 КГц
Частота кадров : 31,250 кадров/сек (1536 SPF)
Битовая глубина : 16 бит
Метод сжатия : С потерями
Размер потока : 346 Мбайт (2%)
Заголовок : Дубляж, Blu-ray CEE
Язык : Russian
Default : Нет
Forced : Нет

Аудио #3
Идентификатор : 4
Формат : AC-3
Формат/Информация : Audio Coding 3
Параметр Endianness формата : Big
Идентификатор кодека : A_AC3
Продолжительность : 1 ч. 48 м.
Вид битрейта : Постоянный
Битрейт : 192 Кбит/сек
Каналы : 1 канал
Расположение каналов : Front: C
Частота : 48,0 КГц
Частота кадров : 31,250 кадров/сек (1536 SPF)
Битовая глубина : 16 бит
Метод сжатия : С потерями
Размер потока : 148 Мбайт (1%)
Заголовок : Дубляж, Киностудия им. Горького
Язык : Russian
Default : Нет
Forced : Нет

Аудио #4
Идентификатор : 5
Формат : AC-3
Формат/Информация : Audio Coding 3
Параметр Endianness формата : Big
Идентификатор кодека : A_AC3
Продолжительность : 1 ч. 48 м.
Вид битрейта : Постоянный
Битрейт : 448 Кбит/сек
Каналы : 6 каналов
Расположение каналов : Front: L C R, Side: L R, LFE
Частота : 48,0 КГц
Частота кадров : 31,250 кадров/сек (1536 SPF)
Битовая глубина : 16 бит
Метод сжатия : С потерями
Размер потока : 346 Мбайт (2%)
Заголовок : Многоголосый закадровый, R5
Язык : Russian
Default : Нет
Forced : Нет

Аудио #5
Идентификатор : 6
Формат : AC-3
Формат/Информация : Audio Coding 3
Параметр Endianness формата : Big
Идентификатор кодека : A_AC3
Продолжительность : 1 ч. 48 м.
Вид битрейта : Постоянный
Битрейт : 384 Кбит/сек
Каналы : 6 каналов
Расположение каналов : Front: L C R, Side: L R, LFE
Частота : 48,0 КГц
Частота кадров : 31,250 кадров/сек (1536 SPF)
Битовая глубина : 16 бит
Метод сжатия : С потерями
Размер потока : 297 Мбайт (2%)
Заголовок : Многоголосый закадровый, Киномания
Язык : Russian
Default : Нет
Forced : Нет

Аудио #6
Идентификатор : 7
Формат : AC-3
Формат/Информация : Audio Coding 3
Параметр Endianness формата : Big
Идентификатор кодека : A_AC3
Продолжительность : 1 ч. 48 м.
Вид битрейта : Постоянный
Битрейт : 192 Кбит/сек
Каналы : 2 канала
Расположение каналов : Front: L R
Частота : 48,0 КГц
Частота кадров : 31,250 кадров/сек (1536 SPF)
Битовая глубина : 16 бит
Метод сжатия : С потерями
Размер потока : 148 Мбайт (1%)
Заголовок : Многоголосый закадровый, OPT
Язык : Russian
Default : Нет
Forced : Нет

Аудио #7
Идентификатор : 8
Формат : AC-3
Формат/Информация : Audio Coding 3
Параметр Endianness формата : Big
Идентификатор кодека : A_AC3
Продолжительность : 1 ч. 48 м.
Вид битрейта : Постоянный
Битрейт : 192 Кбит/сек
Каналы : 2 канала
Расположение каналов : Front: L R
Частота : 48,0 КГц
Частота кадров : 31,250 кадров/сек (1536 SPF)
Битовая глубина : 16 бит
Метод сжатия : С потерями
Размер потока : 148 Мбайт (1%)
Заголовок : Двухголосый закадровый, Премьер-Видео
Язык : Russian
Default : Нет
Forced : Нет

Аудио #8
Идентификатор : 9
Формат : AC-3
Формат/Информация : Audio Coding 3
Параметр Endianness формата : Big
Идентификатор кодека : A_AC3
Продолжительность : 1 ч. 48 м.
Вид битрейта : Постоянный
Битрейт : 192 Кбит/сек
Каналы : 2 канала
Расположение каналов : Front: L R
Частота : 48,0 КГц
Частота кадров : 31,250 кадров/сек (1536 SPF)
Битовая глубина : 16 бит
Метод сжатия : С потерями
Размер потока : 148 Мбайт (1%)
Заголовок : Двухголосый закадровый, НТВ
Язык : Russian
Default : Нет
Forced : Нет

Аудио #9
Идентификатор : 10
Формат : AC-3
Формат/Информация : Audio Coding 3
Параметр Endianness формата : Big
Идентификатор кодека : A_AC3
Продолжительность : 1 ч. 48 м.
Вид битрейта : Постоянный
Битрейт : 640 Кбит/сек
Каналы : 6 каналов
Расположение каналов : Front: L C R, Side: L R, LFE
Частота : 48,0 КГц
Частота кадров : 31,250 кадров/сек (1536 SPF)
Битовая глубина : 16 бит
Метод сжатия : С потерями
Размер потока : 494 Мбайт (3%)
Заголовок : Двухголосый закадровый, П.Гланц и И.Королева
Язык : Russian
Default : Нет
Forced : Нет

Аудио #10
Идентификатор : 11
Формат : AC-3
Формат/Информация : Audio Coding 3
Параметр Endianness формата : Big
Идентификатор кодека : A_AC3
Продолжительность : 1 ч. 48 м.
Вид битрейта : Постоянный
Битрейт : 448 Кбит/сек
Каналы : 6 каналов
Расположение каналов : Front: L C R, Side: L R, LFE
Частота : 48,0 КГц
Частота кадров : 31,250 кадров/сек (1536 SPF)
Битовая глубина : 16 бит
Метод сжатия : С потерями
Размер потока : 346 Мбайт (2%)
Заголовок : Одноголосый закадровый, А.Гаврилов
Язык : Russian
Default : Нет
Forced : Нет

Аудио #11
Идентификатор : 12
Формат : AC-3
Формат/Информация : Audio Coding 3
Параметр Endianness формата : Big
Идентификатор кодека : A_AC3
Продолжительность : 1 ч. 48 м.
Вид битрейта : Постоянный
Битрейт : 384 Кбит/сек
Каналы : 6 каналов
Расположение каналов : Front: L C R, Side: L R, LFE
Частота : 48,0 КГц
Частота кадров : 31,250 кадров/сек (1536 SPF)
Битовая глубина : 16 бит
Метод сжатия : С потерями
Размер потока : 297 Мбайт (2%)
Заголовок : Одноголосый закадровый, в.Горчаков
Язык : Russian
Default : Нет
Forced : Нет

Аудио #12
Идентификатор : 13
Формат : AC-3
Формат/Информация : Audio Coding 3
Параметр Endianness формата : Big
Идентификатор кодека : A_AC3
Продолжительность : 1 ч. 48 м.
Вид битрейта : Постоянный
Битрейт : 448 Кбит/сек
Каналы : 6 каналов
Расположение каналов : Front: L C R, Side: L R, LFE
Частота : 48,0 КГц
Частота кадров : 31,250 кадров/сек (1536 SPF)
Битовая глубина : 16 бит
Метод сжатия : С потерями
Размер потока : 346 Мбайт (2%)
Заголовок : Одноголосый закадровый, К. Поздняков
Язык : Russian
Default : Нет
Forced : Нет

Аудио #13
Идентификатор : 14
Формат : AC-3
Формат/Информация : Audio Coding 3
Параметр Endianness формата : Big
Идентификатор кодека : A_AC3
Продолжительность : 1 ч. 48 м.
Вид битрейта : Постоянный
Битрейт : 192 Кбит/сек
Каналы : 2 канала
Расположение каналов : Front: L R
Частота : 48,0 КГц
Частота кадров : 31,250 кадров/сек (1536 SPF)
Битовая глубина : 16 бит
Метод сжатия : С потерями
Размер потока : 148 Мбайт (1%)
Заголовок : Одноголосый закадровый, П. Прямостанов
Язык : Russian
Default : Нет
Forced : Нет

Аудио #14
Идентификатор : 15
Формат : AC-3
Формат/Информация : Audio Coding 3
Параметр Endianness формата : Big
Идентификатор кодека : A_AC3
Продолжительность : 1 ч. 48 м.
Вид битрейта : Постоянный
Битрейт : 192 Кбит/сек
Каналы : 2 канала
Расположение каналов : Front: L R
Частота : 48,0 КГц
Частота кадров : 31,250 кадров/сек (1536 SPF)
Битовая глубина : 16 бит
Метод сжатия : С потерями
Размер потока : 148 Мбайт (1%)
Заголовок : Одноголосый закадровый, Готлиб
Язык : Russian
Default : Нет
Forced : Нет

Аудио #15
Идентификатор : 16
Формат : AC-3
Формат/Информация : Audio Coding 3
Параметр Endianness формата : Big
Идентификатор кодека : A_AC3
Продолжительность : 1 ч. 48 м.
Вид битрейта : Постоянный
Битрейт : 640 Кбит/сек
Каналы : 6 каналов
Расположение каналов : Front: L C R, Side: L R, LFE
Частота : 48,0 КГц
Частота кадров : 31,250 кадров/сек (1536 SPF)
Битовая глубина : 16 бит
Метод сжатия : С потерями
Размер потока : 494 Мбайт (3%)
Заголовок : Оригинал
Язык : English
Default : Нет
Forced : Нет

Текст #1
Идентификатор : 17
Формат : UTF-8
Идентификатор кодека : S_TEXT/UTF8
Идентификатор кодека/Информация : UTF-8 Plain Text
Заголовок : forced
Язык : Russian
Default : Да
Forced : Нет

Текст #2
Идентификатор : 18
Формат : UTF-8
Идентификатор кодека : S_TEXT/UTF8
Идентификатор кодека/Информация : UTF-8 Plain Text
Язык : Russian
Default : Нет
Forced : Нет

Текст #3
Идентификатор : 19
Формат : UTF-8
Идентификатор кодека : S_TEXT/UTF8
Идентификатор кодека/Информация : UTF-8 Plain Text
Язык : English
Default : Нет
Forced : Нет

Меню
00:00:00.000 : en:War Zone
00:03:11.817 : en:A Force Of One
00:07:26.321 : en:Invisible Enemy
00:11:40.408 : en:Cut To Pieces
00:14:05.386 : en:Insubordination
00:16:03.337 : en:The Feds
00:18:57.970 : en:The New Guy
00:22:21.423 : en:Massacre
00:25:48.756 : en:The Devil Came for Them
00:29:03.867 : en:Keyes' Warning
00:30:20.193 : en:Surveillance
00:32:41.209 : en:Danny and the Demon
00:36:39.864 : en:Now It's Personal
00:41:02.001 : en:A Forensic Mystery
00:43:00.411 : en:King Willie
00:47:17.877 : en:Death of a King
00:51:13.821 : en:The Watcher
00:53:43.053 : en:Subway Assassin
00:58:14.408 : en:Mercy
01:01:18.717 : en:Path of the Predator
01:04:46.591 : en:The Alien Hunter
01:07:36.261 : en:Killer In the Cold
01:15:41.871 : en:Keyes Stands Alone
01:16:49.522 : en:Hunter and Hunted
01:19:23.217 : en:One Ugly...
01:22:01.792 : en:Man Against Alien
01:26:10.916 : en:First Aid
01:31:32.195 : en:The Trophy Room
01:33:38.321 : en:Death Blow
01:36:19.440 : en:The Honor Guard
01:37:54.577 : en:Last Man Standing
01:41:48.602 : en:End Titles
Чужой против Хищника
AVP: Alien vs. Predator

«Кто бы ни победил - человечество проиграет...»

Год выпуска: 2004
Страна: США, Великобритания, Чехия
Студия: Twentieth Century Fox
Жанр: Фантастика, боевик, приключения
Продолжительность: 01:48:41
Перевод: Дубляж, многоголосый, закадровый, авторский

Режиссер: Пол У. С. Андерсон
В ролях: Санаа Лэтэн, Рауль Бова, Лэнс Хенриксен, Юэн Бремнер, Колин Сэлмон, Томми Флэнаган, Джозеф Рай, Агат Де Ла Булае, Карстен Норгаард, Сэм Тротон

Описание: Наши дни. Группа ученых отправляется в Антарктиду, чтобы отыскать колыбель цивилизации, царившей на Земле многие тысячелетия назад. Под толщей льда они находят пирамиды, в которых обнаруживают человеческие скелеты и следы жизнедеятельности чужих.
Однако они еще не знают, что уже находятся под колпаком у хозяев этого города - хищников, и их дни сочтены. Человеческая приманка поможет хищникам, наконец, завершить войну двух космических цивилизаций…

rating

Кодек: H264
Качество: BDRip 1080p
Видео: MPEG-4 AVC, 1920x818, 15000 Кбит/с, 23.976 fps
Аудио 1: Русский, AC3, 6 ch, 640 Кбит/с Дубляж, Custom
Аудио 2: Русский, AC3, 6 ch, 448 Кбит/с Дубляж, +MVO
Аудио 3: Русский, AC3, 6 ch, 640 Кбит/с Многоголосый закадровый, Киномания
Аудио 4: Русский, АС3, 6 ch, 640 Кбит/с Одноголосый закадровый, А. Гаврилов
Аудио 5: Английский, AC3, 6 ch, 640 Кбит/с Оригинал
Субтитры: Русские, английские
Главы: Есть

Цитата:

Кто-то писал:
Аудиo №1 сделана из оригинальной DTS-HD MA дорожки и дублированной Dolby Digital дорожки путём замены всех участков с английской речью, отголосками и эхом на аналогичные с дублированной дорожки во всех каналах и прочими редакторскими правками! Спасибо krat11

скриншот  скриншот  скриншот  скриншот  скриншот  

x264 [info]: frame I:997 Avg QP:12.83 size:253085
x264 [info]: frame P:39251 Avg QP:14.94 size:128995
x264 [info]: frame B:116092 Avg QP:16.73 size: 59483

Общее
Уникальный идентификатор : 218170109358893904383378914254024367321 (0xA42208DF605AE551952A891B88105CD9)
Полное имя : I:Хищник Коллекция3 Чужой против Хищника 2004г. BDRip 1080p.mkv
Формат : Matroska
Версия формата : Version 2
Размер файла : 13,7 Гбайт
Продолжительность : 1 ч. 48 м.
Общий поток : 18,0 Мбит/сек
Название фильма : mister.hats
Дата кодирования : UTC 2020-03-22 08:38:15
Программа кодирования : mkvmerge v5.8.0 ('No Sleep / Pillow') built on Sep 2 2012 15:37:04
Библиотека кодирования : libebml v1.2.3 + libmatroska v1.3.0

Видео
Идентификатор : 1
Формат : AVC
Формат/Информация : Advanced Video Codec
Профиль формата : High@L4.1
Настройки формата : CABAC / 5 Ref Frames
Параметр CABAC формата : Да
Параметр RefFrames формата : 5 кадров
Идентификатор кодека : V_MPEG4/ISO/AVC
Продолжительность : 1 ч. 48 м.
Битрейт : 15,0 Мбит/сек
Ширина : 1920 пикселей
Высота : 818 пикселей
Соотношение сторон : 2,35:1
Режим частоты кадров : Постоянный
Частота кадров : 23,976 (24000/1001) кадра/сек
Цветовое пространство : YUV
Субдискретизация насыщенности : 4:2:0
Битовая глубина : 8 бит
Тип развёртки : Прогрессивная
Бит/(Пиксели*Кадры) : 0.398
Размер потока : 11,1 Гбайт (81%)
Библиотека кодирования : x264 core 152 r2851kMod ba24899
Настройки программы : cabac=1 / ref=5 / deblock=1:-3:-3 / analyse=0x3:0x113 / me=umh / subme=11 / psy=1 / fade_compensate=0.00 / psy_rd=1.00:0.00 / mixed_ref=1 / me_range=48 / chroma_me=1 / trellis=2 / 8x8dct=1 / cqm=0 / deadzone=21,11 / fast_pskip=0 / chroma_qp_offset=-2 / threads=12 / lookahead_threads=3 / sliced_threads=0 / nr=0 / decimate=0 / interlaced=0 / bluray_compat=0 / constrained_intra=0 / bframes=12 / b_pyramid=2 / b_adapt=2 / b_bias=0 / direct=3 / weightb=1 / open_gop=0 / weightp=2 / keyint=240 / keyint_min=23 / scenecut=40 / intra_refresh=0 / rc_lookahead=40 / rc=2pass / mbtree=0 / bitrate=15000 / ratetol=1.0 / qcomp=0.60 / qpmin=0 / qpmax=39 / qpstep=4 / cplxblur=20.0 / qblur=0.5 / vbv_maxrate=50000 / vbv_bufsize=62500 / nal_hrd=none / filler=0 / ip_ratio=1.25 / pb_ratio=1.30 / aq=2:0.90
Язык : English
Default : Да
Forced : Нет
Цветовой диапазон : Limited
Основные цвета : BT.709
Характеристики трансфера : BT.709
Коэффициенты матрицы : BT.709

Аудио #1
Идентификатор : 2
Формат : AC-3
Формат/Информация : Audio Coding 3
Параметр Endianness формата : Big
Идентификатор кодека : A_AC3
Продолжительность : 1 ч. 48 м.
Вид битрейта : Постоянный
Битрейт : 640 Кбит/сек
Каналы : 6 каналов
Расположение каналов : Front: L C R, Side: L R, LFE
Частота : 48,0 КГц
Частота кадров : 31,250 кадров/сек (1536 SPF)
Битовая глубина : 16 бит
Метод сжатия : С потерями
Размер потока : 497 Мбайт (4%)
Заголовок : Дубляж, Custom
Язык : Russian
Default : Да
Forced : Нет

Аудио #2
Идентификатор : 3
Формат : AC-3
Формат/Информация : Audio Coding 3
Параметр Endianness формата : Big
Идентификатор кодека : A_AC3
Продолжительность : 1 ч. 48 м.
Вид битрейта : Постоянный
Битрейт : 448 Кбит/сек
Каналы : 6 каналов
Расположение каналов : Front: L C R, Side: L R, LFE
Частота : 48,0 КГц
Частота кадров : 31,250 кадров/сек (1536 SPF)
Битовая глубина : 16 бит
Метод сжатия : С потерями
Размер потока : 348 Мбайт (2%)
Заголовок : Дубляж, +MVO
Язык : Russian
Default : Нет
Forced : Нет

Аудио #3
Идентификатор : 4
Формат : AC-3
Формат/Информация : Audio Coding 3
Параметр Endianness формата : Big
Идентификатор кодека : A_AC3
Продолжительность : 1 ч. 48 м.
Вид битрейта : Постоянный
Битрейт : 640 Кбит/сек
Каналы : 6 каналов
Расположение каналов : Front: L C R, Side: L R, LFE
Частота : 48,0 КГц
Частота кадров : 31,250 кадров/сек (1536 SPF)
Битовая глубина : 16 бит
Метод сжатия : С потерями
Размер потока : 497 Мбайт (4%)
Заголовок : Многоголосый закадровый, Киномания
Язык : Russian
Default : Нет
Forced : Нет

Аудио #4
Идентификатор : 5
Формат : AC-3
Формат/Информация : Audio Coding 3
Параметр Endianness формата : Big
Идентификатор кодека : A_AC3
Продолжительность : 1 ч. 48 м.
Вид битрейта : Постоянный
Битрейт : 640 Кбит/сек
Каналы : 6 каналов
Расположение каналов : Front: L C R, Side: L R, LFE
Частота : 48,0 КГц
Частота кадров : 31,250 кадров/сек (1536 SPF)
Битовая глубина : 16 бит
Метод сжатия : С потерями
Размер потока : 497 Мбайт (4%)
Заголовок : Одноголосый закадровый, А. Гаврилов
Язык : Russian
Default : Нет
Forced : Нет

Аудио #5
Идентификатор : 6
Формат : AC-3
Формат/Информация : Audio Coding 3
Параметр Endianness формата : Big
Идентификатор кодека : A_AC3
Продолжительность : 1 ч. 48 м.
Вид битрейта : Постоянный
Битрейт : 640 Кбит/сек
Каналы : 6 каналов
Расположение каналов : Front: L C R, Side: L R, LFE
Частота : 48,0 КГц
Частота кадров : 31,250 кадров/сек (1536 SPF)
Битовая глубина : 16 бит
Метод сжатия : С потерями
Размер потока : 497 Мбайт (4%)
Заголовок : Оригинал
Язык : Russian
Default : Нет
Forced : Нет

Текст #1
Идентификатор : 7
Формат : UTF-8
Идентификатор кодека : S_TEXT/UTF8
Идентификатор кодека/Информация : UTF-8 Plain Text
Заголовок : forced
Язык : Russian
Default : Нет
Forced : Нет

Текст #2
Идентификатор : 8
Формат : UTF-8
Идентификатор кодека : S_TEXT/UTF8
Идентификатор кодека/Информация : UTF-8 Plain Text
Язык : Russian
Default : Нет
Forced : Нет

Текст #3
Идентификатор : 9
Формат : UTF-8
Идентификатор кодека : S_TEXT/UTF8
Идентификатор кодека/Информация : UTF-8 Plain Text
Язык : Russian
Default : Нет
Forced : Нет

Текст #4
Идентификатор : 10
Формат : UTF-8
Идентификатор кодека : S_TEXT/UTF8
Идентификатор кодека/Информация : UTF-8 Plain Text
Язык : English
Default : Нет
Forced : Нет

Меню
00:00:00.000 : en:Killers in the Cold
00:02:18.346 : en:Something in Sector 14
00:04:06.204 : en:Weyland's Offer
00:08:36.140 : en:Below the Ice
00:12:59.653 : en:The Better Chance
00:15:41.607 : en:Three Simple Rules
00:19:06.436 : en:Razorback Point
00:23:22.109 : en:The Tunnel
00:26:21.705 : en:Going Down
00:28:43.888 : en:The Pyramid
00:30:39.420 : en:Awakening
00:33:35.805 : en:First Blood
00:35:48.896 : en:Chosen Ones
00:41:39.955 : en:The Sarcophagus
00:44:34.004 : en:The Spawning
00:49:33.011 : en:Prey
00:53:54.814 : en:Death Maze
00:57:45.378 : en:Battle Zone
01:03:10.328 : en:Weyland's Last Stand
01:05:25.921 : en:Rite of Passage
01:08:36.153 : en:Gods and Monsters
01:11:59.648 : en:The Enemy of My Enemy
01:13:36.995 : en:Alone
01:15:41.703 : en:Two Warriors
01:18:50.517 : en:Allies
01:21:48.612 : en:The Nest
01:24:44.954 : en:The Fire Down Below
01:28:21.546 : en:Blood of the Kill
01:29:41.292 : en:The Bitch Is Back
01:33:16.591 : en:A Warrior's Token
01:36:01.589 : en:The Beast Within
01:36:35.623 : en:End Titles
Чужие против Хищника: Реквием
AVPR: Aliens vs Predator - Requiem

«На Земле каждый услышит твой крик»

Год выпуска: 2007
Страна: США
Студия: 20th Century Fox Film Corporation, Davis Entertainment, Dune Entertainment, Brandywine Productions Ltd.
Жанр: Ужасы, фантастика, боевик, триллер
Продолжительность: 01:41:05
Перевод: Дубляж, профессиональный (многоголосый, закадровый), авторский (одноголосый, закадровый)

Режиссер: Колин Штраус, Грег Штраус
В ролях: Стивен Паскуале, Рейко Эйлсворт, Джон Ортис, Джонни Льюис, Эриель Гейд, Кристен Хагер, Сэм Трэммелл, Роберт Джой, Дэвид Петкау, Том Вудрафф мл.

Описание: Атакованный «Предалиеном», жутким гибридом Хищника и Чужого, корабль Хищников терпит крушение в лесах, окружающих маленький техасский городок. И пока на сигнал о помощи, посланный в момент падения, спешит подкрепление, Чужие успевают инфицировать половину населения города.

rating

Кодек: H264
Качество: BDRip 1080p
Видео: MPEG-4 AVC, 1920x800, 13300 Кбит/с, 23.976 fps
Аудио 1: Русский, AC3, 6 ch, 448 Кбит/с Дубляж, Blu-ray
Аудио 2: Русский, AC3, 6 ch, 448 Кбит/с Многоголосый закадровый, Киномания
Аудио 3: Русский, AC3, 6 ch, 448 Кбит/с Многоголосый закадровый, Кравец
Аудио 4: Русский, AC3, 6 ch, 448 Одноголосый закадровый, Ю. Немахов
Аудио 5: Английский, AC3, 6 ch, 640 Кбит/с Оригинал
Субтитры: Русские, английские
Главы: Есть
скриншот  скриншот  скриншот  скриншот  скриншот  

x264 [info]: frame I:840 Avg QP:13.24 size:208531
x264 [info]: frame P:41302 Avg QP:14.53 size:104289
x264 [info]: frame B:103273 Avg QP:16.94 size: 54137

Общее
Уникальный идентификатор : 203445339595686031481225164783741638690 (0x990E25AC1A6A4EA4B16FE64A651D1822)
Полное имя : I:Хищник Коллекция4 Чужие против Хищника Реквием 2007г. BDRip 1080p.mkv
Формат : Matroska
Версия формата : Version 2
Размер файла : 11,1 Гбайт
Продолжительность : 1 ч. 41 м.
Общий поток : 15,7 Мбит/сек
Название фильма : mister.hats
Дата кодирования : UTC 2020-03-20 11:23:20
Программа кодирования : mkvmerge v5.8.0 ('No Sleep / Pillow') built on Sep 2 2012 15:37:04
Библиотека кодирования : libebml v1.2.3 + libmatroska v1.3.0

Видео
Идентификатор : 1
Формат : AVC
Формат/Информация : Advanced Video Codec
Профиль формата : High@L4.1
Настройки формата : CABAC / 5 Ref Frames
Параметр CABAC формата : Да
Параметр RefFrames формата : 5 кадров
Идентификатор кодека : V_MPEG4/ISO/AVC
Продолжительность : 1 ч. 41 м.
Битрейт : 13,3 Мбит/сек
Ширина : 1920 пикселей
Высота : 800 пикселей
Соотношение сторон : 2,40:1
Режим частоты кадров : Постоянный
Частота кадров : 23,976 (24000/1001) кадра/сек
Цветовое пространство : YUV
Субдискретизация насыщенности : 4:2:0
Битовая глубина : 8 бит
Тип развёртки : Прогрессивная
Бит/(Пиксели*Кадры) : 0.361
Размер потока : 9,16 Гбайт (83%)
Библиотека кодирования : x264 core 152 r2851kMod ba24899
Настройки программы : cabac=1 / ref=5 / deblock=1:-3:-3 / analyse=0x3:0x113 / me=umh / subme=11 / psy=1 / fade_compensate=0.00 / psy_rd=1.05:0.05 / mixed_ref=1 / me_range=48 / chroma_me=1 / trellis=2 / 8x8dct=1 / cqm=0 / deadzone=21,11 / fast_pskip=0 / chroma_qp_offset=-3 / threads=12 / lookahead_threads=3 / sliced_threads=0 / nr=0 / decimate=0 / interlaced=0 / bluray_compat=0 / constrained_intra=0 / bframes=11 / b_pyramid=2 / b_adapt=2 / b_bias=0 / direct=3 / weightb=1 / open_gop=0 / weightp=2 / keyint=240 / keyint_min=23 / scenecut=40 / intra_refresh=0 / rc_lookahead=40 / rc=2pass / mbtree=0 / bitrate=13300 / ratetol=1.0 / qcomp=0.60 / qpmin=0 / qpmax=39 / qpstep=4 / cplxblur=20.0 / qblur=0.5 / vbv_maxrate=50000 / vbv_bufsize=62500 / nal_hrd=none / filler=0 / ip_ratio=1.15 / pb_ratio=1.30 / aq=2:0.80
Язык : English
Default : Да
Forced : Нет
Цветовой диапазон : Limited
Основные цвета : BT.709
Характеристики трансфера : BT.709
Коэффициенты матрицы : BT.709

Аудио #1
Идентификатор : 2
Формат : AC-3
Формат/Информация : Audio Coding 3
Параметр Endianness формата : Big
Идентификатор кодека : A_AC3
Продолжительность : 1 ч. 41 м.
Вид битрейта : Постоянный
Битрейт : 448 Кбит/сек
Каналы : 6 каналов
Расположение каналов : Front: L C R, Side: L R, LFE
Частота : 48,0 КГц
Частота кадров : 31,250 кадров/сек (1536 SPF)
Битовая глубина : 16 бит
Метод сжатия : С потерями
Размер потока : 324 Мбайт (3%)
Заголовок : Дубляж
Язык : Russian
Default : Да
Forced : Нет

Аудио #2
Идентификатор : 3
Формат : AC-3
Формат/Информация : Audio Coding 3
Параметр Endianness формата : Big
Идентификатор кодека : A_AC3
Продолжительность : 1 ч. 41 м.
Вид битрейта : Постоянный
Битрейт : 448 Кбит/сек
Каналы : 6 каналов
Расположение каналов : Front: L C R, Side: L R, LFE
Частота : 48,0 КГц
Частота кадров : 31,250 кадров/сек (1536 SPF)
Битовая глубина : 16 бит
Метод сжатия : С потерями
Размер потока : 324 Мбайт (3%)
Заголовок : Многоголосый закадровый, Киномания
Язык : Russian
Default : Нет
Forced : Нет

Аудио #3
Идентификатор : 4
Формат : AC-3
Формат/Информация : Audio Coding 3
Параметр Endianness формата : Big
Идентификатор кодека : A_AC3
Продолжительность : 1 ч. 41 м.
Вид битрейта : Постоянный
Битрейт : 448 Кбит/сек
Каналы : 6 каналов
Расположение каналов : Front: L C R, Side: L R, LFE
Частота : 48,0 КГц
Частота кадров : 31,250 кадров/сек (1536 SPF)
Битовая глубина : 16 бит
Метод сжатия : С потерями
Размер потока : 324 Мбайт (3%)
Заголовок : Многоголосый закадровый, Кравец
Язык : Russian
Default : Нет
Forced : Нет

Аудио #4
Идентификатор : 5
Формат : AC-3
Формат/Информация : Audio Coding 3
Параметр Endianness формата : Big
Идентификатор кодека : A_AC3
Продолжительность : 1 ч. 41 м.
Вид битрейта : Постоянный
Битрейт : 448 Кбит/сек
Каналы : 6 каналов
Расположение каналов : Front: L C R, Side: L R, LFE
Частота : 48,0 КГц
Частота кадров : 31,250 кадров/сек (1536 SPF)
Битовая глубина : 16 бит
Метод сжатия : С потерями
Размер потока : 324 Мбайт (3%)
Заголовок : Одноголосый закадровый, Ю. Немахов
Язык : Russian
Default : Нет
Forced : Нет

Аудио #5
Идентификатор : 6
Формат : AC-3
Формат/Информация : Audio Coding 3
Параметр Endianness формата : Big
Идентификатор кодека : A_AC3
Продолжительность : 1 ч. 41 м.
Вид битрейта : Постоянный
Битрейт : 640 Кбит/сек
Каналы : 6 каналов
Расположение каналов : Front: L C R, Side: L R, LFE
Частота : 48,0 КГц
Частота кадров : 31,250 кадров/сек (1536 SPF)
Битовая глубина : 16 бит
Метод сжатия : С потерями
Размер потока : 463 Мбайт (4%)
Заголовок : Оригинал
Язык : English
Default : Нет
Forced : Нет

Текст #1
Идентификатор : 7
Формат : UTF-8
Идентификатор кодека : S_TEXT/UTF8
Идентификатор кодека/Информация : UTF-8 Plain Text
Язык : Russian
Default : Нет
Forced : Нет

Текст #2
Идентификатор : 8
Формат : UTF-8
Идентификатор кодека : S_TEXT/UTF8
Идентификатор кодека/Информация : UTF-8 Plain Text
Язык : English
Default : Нет
Forced : Нет

Меню
00:00:00.000 : en:Main Titles/Crash Landing
00:03:44.200 : en:Unsuspecting Victims
00:05:56.168 : en:Distress Call
00:06:51.335 : en:Old Friends
00:08:43.669 : en:Pizza Delivery
00:13:26.503 : en:Alien Advance
00:15:18.870 : en:Homecoming
00:19:28.170 : en:Predator Warrior
00:26:35.837 : en:Strange Discoveries
00:29:49.705 : en:The Search
00:33:25.506 : en:Another Victim
00:38:32.006 : en:An Invitation
00:39:57.006 : en:Epic Battle
00:42:39.373 : en:Advancing Terror
00:45:30.840 : en:The Battle Continues
00:50:02.708 : en:Hunting
00:54:19.676 : en:Widening Crisis
00:59:36.343 : en:Preparing for Battle
01:04:53.843 : en:The Enemy Multiplies
01:06:48.843 : en:No Refuge
01:10:14.677 : en:Escape Attempt
01:12:05.511 : en:Choosing Sides
01:16:32.379 : en:Grim Discovery
01:18:47.846 : en:Collateral Damage
01:23:14.680 : en:Dodging Death
01:28:38.847 : en:Annihilation
01:31:25.880 : en:Survival
01:34:05.598 : en:Classified Material/End Titles
Хищники
Predators

«Они - самые опасные убийцы на планете. Но это не наша планета...»

Год выпуска: 2010
Страна: США
Студия: Troublemaker Studios, 20th Century Fox Film Corporation, Davis Entertainment
Жанр: Фантастика, боевик, триллер, приключения
Продолжительность:01:46:53
Перевод: Дубляж, профессиональный (многоголосый, закадровый), авторский (одноголосый, закадровый)

Режиссер: Нимрод Антал
В ролях: Эдриан Броуди, Тофер Грейс, Алиси Брага, Уолтон Гоггинс, Олег Тактаров, Лоренс Фишбёрн, Дэнни Трехо, Луис Одзава Чангчьен, Махершалалхашбаз Али, Кэри Джонс

Описание: Наемник Ройс невольно вынужден возглавить группу профессионалов, выполняющих загадочную миссию на неизвестной планете. За исключением опального доктора все они — хладнокровные убийцы: наемники, гангстеры, осужденные и участники отрядов смерти людские «хищники». Но когда их начинает систематически преследовать и истреблять невообразимое чудовище, становится очевидно, что теперь они в роли своих жертв.

rating

Кодек: H264
Качество: BDRip 1080p
Видео: MPEG-4 AVC, 1920x816, 17400 Кбит/с, 23.976 fps
Аудио 1: Русский, AC3, 6 ch, 640 Кбит/с Дубляж, Custom
Аудио 2: Русский, AC3, 6 ch, 448 Кбит/с Дубляж, Blu-ray CEE
Аудио 3: Русский, AC3, 6 ch, 640 Кбит/с Одноголосый закадровый, А.Гаврилов
Аудио 4: Русский, АС3, 6 ch, 640 Кбит/с Одноголосый закадровый, Д.Строев
Аудио 5: Русский, АС3, 6 ch, 640 Кбит/с Одноголосый закадровый, М.Чадов
Аудио 6: Английский, АС3, 6 ch, 640 Кбит/с Оригинал
Субтитры: Русские, английские
Главы: Есть

Цитата:

Цитата
Кто-то писал:
Аудиo №1 сделана из оригинальной DTS-HD MA дорожки и дублированной DTS дорожки путём замены всех участков с английской речью, отголосками и эхом на аналогичные с дублированной дорожки во всех каналах. Спасибо Sergesha

скриншот  скриншот  скриншот  скриншот  скриншот  

x264 [info]: frame I:869 Avg QP:15.66 size:224857
x264 [info]: frame P:36907 Avg QP:16.94 size:131707
x264 [info]: frame B:115984 Avg QP:19.56 size: 76647

Общее
Уникальный идентификатор : 234334010227281936663375593749016212684 (0xB04B16B6E95286378B6904ECC3F3F4CC)
Полное имя : I:Хищник Коллекция5 Хищники 2010г. BDRip 1080p.mkv
Формат : Matroska
Версия формата : Version 2
Размер файла : 15,7 Гбайт
Продолжительность : 1 ч. 46 м.
Общий поток : 21,1 Мбит/сек
Название фильма : mister.hats
Дата кодирования : UTC 2020-03-22 21:35:10
Программа кодирования : mkvmerge v5.8.0 ('No Sleep / Pillow') built on Sep 2 2012 15:37:04
Библиотека кодирования : libebml v1.2.3 + libmatroska v1.3.0
Attachments : MHeiHKS-Medium.otf

Видео
Идентификатор : 1
Формат : AVC
Формат/Информация : Advanced Video Codec
Профиль формата : High@L4.1
Настройки формата : CABAC / 5 Ref Frames
Параметр CABAC формата : Да
Параметр RefFrames формата : 5 кадров
Идентификатор кодека : V_MPEG4/ISO/AVC
Продолжительность : 1 ч. 46 м.
Битрейт : 17,4 Мбит/сек
Ширина : 1920 пикселей
Высота : 816 пикселей
Соотношение сторон : 2,35:1
Режим частоты кадров : Постоянный
Частота кадров : 23,976 (24000/1001) кадра/сек
Цветовое пространство : YUV
Субдискретизация насыщенности : 4:2:0
Битовая глубина : 8 бит
Тип развёртки : Прогрессивная
Бит/(Пиксели*Кадры) : 0.463
Размер потока : 12,7 Гбайт (81%)
Библиотека кодирования : x264 core 152 r2851kMod ba24899
Настройки программы : cabac=1 / ref=5 / deblock=1:-3:-3 / analyse=0x3:0x113 / me=umh / subme=11 / psy=1 / fade_compensate=0.00 / psy_rd=1.00:0.00 / mixed_ref=1 / me_range=48 / chroma_me=1 / trellis=2 / 8x8dct=1 / cqm=0 / deadzone=21,11 / fast_pskip=0 / chroma_qp_offset=-2 / threads=12 / lookahead_threads=3 / sliced_threads=0 / nr=0 / decimate=0 / interlaced=0 / bluray_compat=0 / constrained_intra=0 / bframes=16 / b_pyramid=2 / b_adapt=2 / b_bias=0 / direct=3 / weightb=1 / open_gop=0 / weightp=2 / keyint=240 / keyint_min=23 / scenecut=40 / intra_refresh=0 / rc_lookahead=40 / rc=2pass / mbtree=0 / bitrate=17400 / ratetol=1.0 / qcomp=0.60 / qpmin=0 / qpmax=39 / qpstep=4 / cplxblur=20.0 / qblur=0.5 / vbv_maxrate=50000 / vbv_bufsize=62500 / nal_hrd=none / filler=0 / ip_ratio=1.25 / pb_ratio=1.30 / aq=2:0.70
Язык : English
Default : Да
Forced : Нет
Цветовой диапазон : Limited
Основные цвета : BT.709
Характеристики трансфера : BT.709
Коэффициенты матрицы : BT.709

Аудио #1
Идентификатор : 2
Формат : AC-3
Формат/Информация : Audio Coding 3
Параметр Endianness формата : Big
Идентификатор кодека : A_AC3
Продолжительность : 1 ч. 46 м.
Вид битрейта : Постоянный
Битрейт : 640 Кбит/сек
Каналы : 6 каналов
Расположение каналов : Front: L C R, Side: L R, LFE
Частота : 48,0 КГц
Частота кадров : 31,250 кадров/сек (1536 SPF)
Битовая глубина : 16 бит
Метод сжатия : С потерями
Размер потока : 489 Мбайт (3%)
Заголовок : Дубляж, Custom
Язык : Russian
Default : Да
Forced : Нет

Аудио #2
Идентификатор : 3
Формат : AC-3
Формат/Информация : Audio Coding 3
Параметр Endianness формата : Big
Идентификатор кодека : A_AC3
Продолжительность : 1 ч. 46 м.
Вид битрейта : Постоянный
Битрейт : 448 Кбит/сек
Каналы : 6 каналов
Расположение каналов : Front: L C R, Side: L R, LFE
Частота : 48,0 КГц
Частота кадров : 31,250 кадров/сек (1536 SPF)
Битовая глубина : 16 бит
Метод сжатия : С потерями
Размер потока : 343 Мбайт (2%)
Заголовок : Дубляж, Blu-ray CEE
Язык : Russian
Default : Нет
Forced : Нет

Аудио #3
Идентификатор : 4
Формат : AC-3
Формат/Информация : Audio Coding 3
Параметр Endianness формата : Big
Идентификатор кодека : A_AC3
Продолжительность : 1 ч. 46 м.
Вид битрейта : Постоянный
Битрейт : 640 Кбит/сек
Каналы : 6 каналов
Расположение каналов : Front: L C R, Side: L R, LFE
Частота : 48,0 КГц
Частота кадров : 31,250 кадров/сек (1536 SPF)
Битовая глубина : 16 бит
Метод сжатия : С потерями
Размер потока : 489 Мбайт (3%)
Заголовок : Одноголосый закадровый, А.Гаврилов
Язык : Russian
Default : Нет
Forced : Нет

Аудио #4
Идентификатор : 5
Формат : AC-3
Формат/Информация : Audio Coding 3
Параметр Endianness формата : Big
Идентификатор кодека : A_AC3
Продолжительность : 1 ч. 46 м.
Вид битрейта : Постоянный
Битрейт : 640 Кбит/сек
Каналы : 6 каналов
Расположение каналов : Front: L C R, Side: L R, LFE
Частота : 48,0 КГц
Частота кадров : 31,250 кадров/сек (1536 SPF)
Битовая глубина : 16 бит
Метод сжатия : С потерями
Размер потока : 489 Мбайт (3%)
Заголовок : Одноголосый закадровый, Д.Строев
Язык : Russian
Default : Нет
Forced : Нет

Аудио #5
Идентификатор : 6
Формат : AC-3
Формат/Информация : Audio Coding 3
Параметр Endianness формата : Big
Идентификатор кодека : A_AC3
Продолжительность : 1 ч. 46 м.
Вид битрейта : Постоянный
Битрейт : 640 Кбит/сек
Каналы : 6 каналов
Расположение каналов : Front: L C R, Side: L R, LFE
Частота : 48,0 КГц
Частота кадров : 31,250 кадров/сек (1536 SPF)
Битовая глубина : 16 бит
Метод сжатия : С потерями
Размер потока : 489 Мбайт (3%)
Заголовок : Одноголосый закадровый, М.Чадов
Язык : Russian
Default : Нет
Forced : Нет

Аудио #6
Идентификатор : 7
Формат : AC-3
Формат/Информация : Audio Coding 3
Параметр Endianness формата : Big
Идентификатор кодека : A_AC3
Продолжительность : 1 ч. 46 м.
Вид битрейта : Постоянный
Битрейт : 640 Кбит/сек
Каналы : 6 каналов
Расположение каналов : Front: L C R, Side: L R, LFE
Частота : 48,0 КГц
Частота кадров : 31,250 кадров/сек (1536 SPF)
Битовая глубина : 16 бит
Метод сжатия : С потерями
Размер потока : 489 Мбайт (3%)
Заголовок : Оригинал
Язык : English
Default : Нет
Forced : Нет

Текст #1
Идентификатор : 8
Формат : UTF-8
Идентификатор кодека : S_TEXT/UTF8
Идентификатор кодека/Информация : UTF-8 Plain Text
Заголовок : R5
Язык : Russian
Default : Нет
Forced : Нет

Текст #2
Идентификатор : 9
Формат : UTF-8
Идентификатор кодека : S_TEXT/UTF8
Идентификатор кодека/Информация : UTF-8 Plain Text
Заголовок : Notabenoid
Язык : Russian
Default : Нет
Forced : Нет

Текст #3
Идентификатор : 10
Формат : UTF-8
Идентификатор кодека : S_TEXT/UTF8
Идентификатор кодека/Информация : UTF-8 Plain Text
Заголовок : egor-motygin (+18)
Язык : Russian
Default : Нет
Forced : Нет

Текст #4
Идентификатор : 11
Формат : UTF-8
Идентификатор кодека : S_TEXT/UTF8
Идентификатор кодека/Информация : UTF-8 Plain Text
Заголовок : SDH
Язык : English
Default : Нет
Forced : Нет

Меню
00:00:00.000 : en:Chapter 1
00:05:27.034 : en:Chapter 2
00:07:57.392 : en:Chapter 3
00:13:33.520 : en:Chapter 4
00:17:26.586 : en:Chapter 5
00:20:02.409 : en:Chapter 6
00:23:46.298 : en:Chapter 7
00:26:19.118 : en:Chapter 8
00:31:34.517 : en:Chapter 9
00:34:56.510 : en:Chapter 10
00:38:24.719 : en:Chapter 11
00:41:57.056 : en:Chapter 12
00:46:12.978 : en:Chapter 13
00:49:57.786 : en:Chapter 14
00:53:27.954 : en:Chapter 15
00:57:43.126 : en:Chapter 16
01:02:11.853 : en:Chapter 17
01:05:48.902 : en:Chapter 18
01:09:38.756 : en:Chapter 19
01:14:16.993 : en:Chapter 20
01:16:25.537 : en:Chapter 21
01:19:26.927 : en:Chapter 22
01:21:34.470 : en:Chapter 23
01:23:51.899 : en:Chapter 24
01:27:33.706 : en:Chapter 25
01:30:48.234 : en:Chapter 26
01:34:12.563 : en:Chapter 27
01:41:17.695 : en:Chapter 28
Хищник
The Predator

«You'll never see him coming»
Год выпуска: 2018
Страна: США, Канада
Студия: 20th Century Fox Film Corporation, TSG Entertainment, Dark Castle Entertainment
Жанр: Ужасы, фантастика, боевик, приключения
Продолжительность: 01:46:56
Перевод: Дубляж, авторский

Режиссер: Шейн Блэк
В ролях: Бойд Холбрук, Треванте Роудс, Джейкоб Трамбле, Кигэн-Майкл Ки, Оливия Манн, Стерлинг К. Браун, Томас Джейн, Элфи Оуэн-Аллен, Августо Агилера, Джейк Бьюзи

Описание: Главный герой, бывший морпех, обнаруживает злобную инопланетную расу на Земле, но никто не верит ему, что эти твари существуют. Его сын-аутист, которого все обижают в школе, становится ключевой фигурой в схватке с Хищниками, поскольку мальчик умеет невероятно быстро учить языки и, судя по всему, сможет понять пришельцев.



Кодек: H264
Качество: BDRip 1080p
Видео: MPEG-4 AVC, 1920x804, 15200 Кбит/с, 23.976 fps
Аудио 1: Русский, AC3, 6 ch, 640 Кбит/с Дубляж, Custom
Аудио 2: Русский, AC3, 6 ch, 448 Кбит/с Дубляж, Blu-ray CEE
Аудио 3: Русский, АС3, 6 ch, 640 Кбит/с Одноголосый закадровый, Ю.Сербин
Аудио 4: Русский, АС3, 6 ch, 640 Кбит/с Одноголосый закадровый, Ю.Живов
Аудио 5: Русский, АС3, 6 ch, 640 Кбит/с Одноголосый закадровый, М. Яроцкий
Аудио 6: Английский, АС3, 6 ch, 640 Кбит/с Оригинал
Субтитры: Русские, английские
Главы: Есть

Цитата:

Кто-то писал:
Аудиo №1 сделана из оригинальной DTS-HD MA дорожки и дублированной Dolby Digital дорожки путём замены всех участков с английской речью, отголосками и эхом на аналогичные с дублированной дорожки во всех каналах! Спасибо djamb.

скриншот  скриншот  скриншот  скриншот  скриншот  

x264 [info]: frame I:1267 Avg QP:13.69 size:298928
x264 [info]: frame P:39614 Avg QP:15.93 size:136288
x264 [info]: frame B:112969 Avg QP:17.99 size: 56752

Общее
Уникальный идентификатор : 218543216125775963084729956576577363977 (0xA469E474D8A413A8A8914286A00AA009)
Полное имя : I:Хищник Коллекция6 Хищник 2018г. BDRip 1080p.mkv
Формат : Matroska
Версия формата : Version 2
Размер файла : 14,1 Гбайт
Продолжительность : 1 ч. 46 м.
Общий поток : 18,8 Мбит/сек
Название фильма : mister.hats
Дата кодирования : UTC 2020-03-23 13:28:25
Программа кодирования : mkvmerge v5.8.0 ('No Sleep / Pillow') built on Sep 2 2012 15:37:04
Библиотека кодирования : libebml v1.2.3 + libmatroska v1.3.0

Видео
Идентификатор : 1
Формат : AVC
Формат/Информация : Advanced Video Codec
Профиль формата : High@L4.1
Настройки формата : CABAC / 5 Ref Frames
Параметр CABAC формата : Да
Параметр RefFrames формата : 5 кадров
Идентификатор кодека : V_MPEG4/ISO/AVC
Продолжительность : 1 ч. 46 м.
Битрейт : 15,2 Мбит/сек
Ширина : 1920 пикселей
Высота : 804 пикселя
Соотношение сторон : 2,40:1
Режим частоты кадров : Постоянный
Частота кадров : 23,976 (24000/1001) кадра/сек
Цветовое пространство : YUV
Субдискретизация насыщенности : 4:2:0
Битовая глубина : 8 бит
Тип развёртки : Прогрессивная
Бит/(Пиксели*Кадры) : 0.411
Размер потока : 11,1 Гбайт (79%)
Библиотека кодирования : x264 core 152 r2851kMod ba24899
Настройки программы : cabac=1 / ref=5 / deblock=1:-3:-3 / analyse=0x3:0x113 / me=umh / subme=11 / psy=1 / fade_compensate=0.00 / psy_rd=1.05:0.05 / mixed_ref=1 / me_range=48 / chroma_me=1 / trellis=2 / 8x8dct=1 / cqm=0 / deadzone=21,11 / fast_pskip=0 / chroma_qp_offset=-3 / threads=12 / lookahead_threads=3 / sliced_threads=0 / nr=0 / decimate=0 / interlaced=0 / bluray_compat=0 / constrained_intra=0 / bframes=10 / b_pyramid=2 / b_adapt=2 / b_bias=0 / direct=3 / weightb=1 / open_gop=0 / weightp=2 / keyint=240 / keyint_min=23 / scenecut=40 / intra_refresh=0 / rc_lookahead=40 / rc=2pass / mbtree=0 / bitrate=15200 / ratetol=1.0 / qcomp=0.60 / qpmin=0 / qpmax=39 / qpstep=4 / cplxblur=20.0 / qblur=0.5 / vbv_maxrate=50000 / vbv_bufsize=62500 / nal_hrd=none / filler=0 / ip_ratio=1.25 / pb_ratio=1.30 / aq=2:0.80
Язык : English
Default : Да
Forced : Нет
Цветовой диапазон : Limited
Основные цвета : BT.709
Характеристики трансфера : BT.709
Коэффициенты матрицы : BT.709

Аудио #1
Идентификатор : 2
Формат : AC-3
Формат/Информация : Audio Coding 3
Параметр Endianness формата : Big
Идентификатор кодека : A_AC3
Продолжительность : 1 ч. 46 м.
Вид битрейта : Постоянный
Битрейт : 640 Кбит/сек
Каналы : 6 каналов
Расположение каналов : Front: L C R, Side: L R, LFE
Частота : 48,0 КГц
Частота кадров : 31,250 кадров/сек (1536 SPF)
Битовая глубина : 16 бит
Метод сжатия : С потерями
Размер потока : 490 Мбайт (3%)
Заголовок : Дубляж, Custom
Язык : Russian
Default : Да
Forced : Нет

Аудио #2
Идентификатор : 3
Формат : AC-3
Формат/Информация : Audio Coding 3
Параметр Endianness формата : Big
Идентификатор кодека : A_AC3
Продолжительность : 1 ч. 46 м.
Вид битрейта : Постоянный
Битрейт : 448 Кбит/сек
Каналы : 6 каналов
Расположение каналов : Front: L C R, Side: L R, LFE
Частота : 48,0 КГц
Частота кадров : 31,250 кадров/сек (1536 SPF)
Битовая глубина : 16 бит
Метод сжатия : С потерями
Размер потока : 343 Мбайт (2%)
Заголовок : Дубляж, Blu-ray CEE
Язык : Russian
Default : Нет
Forced : Нет

Аудио #3
Идентификатор : 4
Формат : AC-3
Формат/Информация : Audio Coding 3
Параметр Endianness формата : Big
Идентификатор кодека : A_AC3
Продолжительность : 1 ч. 46 м.
Вид битрейта : Постоянный
Битрейт : 640 Кбит/сек
Каналы : 6 каналов
Расположение каналов : Front: L C R, Side: L R, LFE
Частота : 48,0 КГц
Частота кадров : 31,250 кадров/сек (1536 SPF)
Битовая глубина : 16 бит
Метод сжатия : С потерями
Размер потока : 490 Мбайт (3%)
Заголовок : Одноголосый закадровый, Ю.Сербин
Язык : Russian
Default : Нет
Forced : Нет

Аудио #4
Идентификатор : 5
Формат : AC-3
Формат/Информация : Audio Coding 3
Параметр Endianness формата : Big
Идентификатор кодека : A_AC3
Продолжительность : 1 ч. 46 м.
Вид битрейта : Постоянный
Битрейт : 640 Кбит/сек
Каналы : 6 каналов
Расположение каналов : Front: L C R, Side: L R, LFE
Частота : 48,0 КГц
Частота кадров : 31,250 кадров/сек (1536 SPF)
Битовая глубина : 16 бит
Метод сжатия : С потерями
Размер потока : 490 Мбайт (3%)
Заголовок : Одноголосый закадровый, Ю.Живов
Язык : Russian
Default : Нет
Forced : Нет

Аудио #5
Идентификатор : 6
Формат : AC-3
Формат/Информация : Audio Coding 3
Параметр Endianness формата : Big
Идентификатор кодека : A_AC3
Продолжительность : 1 ч. 46 м.
Вид битрейта : Постоянный
Битрейт : 640 Кбит/сек
Каналы : 6 каналов
Расположение каналов : Front: L C R, Side: L R, LFE
Частота : 48,0 КГц
Частота кадров : 31,250 кадров/сек (1536 SPF)
Битовая глубина : 16 бит
Метод сжатия : С потерями
Размер потока : 490 Мбайт (3%)
Заголовок : Одноголосый закадровый, М. Яроцкий
Язык : Russian
Default : Нет
Forced : Нет

Аудио #6
Идентификатор : 7
Формат : AC-3
Формат/Информация : Audio Coding 3
Параметр Endianness формата : Big
Идентификатор кодека : A_AC3
Продолжительность : 1 ч. 46 м.
Вид битрейта : Постоянный
Битрейт : 640 Кбит/сек
Каналы : 6 каналов
Расположение каналов : Front: L C R, Side: L R, LFE
Частота : 48,0 КГц
Частота кадров : 31,250 кадров/сек (1536 SPF)
Битовая глубина : 16 бит
Метод сжатия : С потерями
Размер потока : 490 Мбайт (3%)
Заголовок : Оригинал
Язык : English
Default : Нет
Forced : Нет

Текст #1
Идентификатор : 8
Формат : UTF-8
Идентификатор кодека : S_TEXT/UTF8
Идентификатор кодека/Информация : UTF-8 Plain Text
Заголовок : Forced
Язык : Russian
Default : Да
Forced : Да

Текст #2
Идентификатор : 9
Формат : UTF-8
Идентификатор кодека : S_TEXT/UTF8
Идентификатор кодека/Информация : UTF-8 Plain Text
Заголовок : iTunes
Язык : Russian
Default : Нет
Forced : Нет

Текст #3
Идентификатор : 10
Формат : UTF-8
Идентификатор кодека : S_TEXT/UTF8
Идентификатор кодека/Информация : UTF-8 Plain Text
Заголовок : Forced
Язык : English
Default : Нет
Forced : Нет

Текст #4
Идентификатор : 11
Формат : UTF-8
Идентификатор кодека : S_TEXT/UTF8
Идентификатор кодека/Информация : UTF-8 Plain Text
Заголовок : Full
Язык : English
Default : Нет
Forced : Нет

Текст #5
Идентификатор : 12
Формат : UTF-8
Идентификатор кодека : S_TEXT/UTF8
Идентификатор кодека/Информация : UTF-8 Plain Text
Заголовок : SDH
Язык : English
Default : Нет
Forced : Нет

Текст #6
Идентификатор : 13
Формат : UTF-8
Идентификатор кодека : S_TEXT/UTF8
Идентификатор кодека/Информация : UTF-8 Plain Text
Заголовок : SDH-Colored
Язык : English
Default : Нет
Forced : Нет

Меню
00:00:00.000 : en:00:00:00.000
00:02:00.704 : en:00:02:00.704
00:08:32.929 : en:00:08:32.929
00:09:45.335 : en:00:09:45.335
00:13:47.660 : en:00:13:47.660
00:16:09.177 : en:00:16:09.177
00:17:36.430 : en:00:17:36.430
00:20:21.470 : en:00:20:21.470
00:25:01.959 : en:00:25:01.959
00:27:36.280 : en:00:27:36.280
00:31:10.077 : en:00:31:10.077
00:36:23.348 : en:00:36:23.348
00:38:00.653 : en:00:38:00.653
00:39:42.547 : en:00:39:42.547
00:44:34.714 : en:00:44:34.714
00:49:15.911 : en:00:49:15.911
00:53:18.612 : en:00:53:18.612
00:58:34.511 : en:00:58:34.511
00:59:58.512 : en:00:59:58.512
01:03:16.292 : en:01:03:16.292
01:06:36.826 : en:01:06:36.826
01:09:51.020 : en:01:09:51.020
01:12:26.634 : en:01:12:26.634
01:15:55.634 : en:01:15:55.634
01:18:52.686 : en:01:18:52.686
01:21:24.630 : en:01:21:24.630
01:23:08.942 : en:01:23:08.942
01:27:08.807 : en:01:27:08.807
01:30:55.241 : en:01:30:55.241
01:32:14.821 : en:01:32:14.821
01:35:08.411 : en:01:35:08.411
01:40:00.203 : en:01:40:00.203
pb.wtf



Скачать Хищник: Коллекция через торрент http://b.radikal.ru/b08/2003/d9/26fabc51c23c.png Скачать, смотреть онлайн Хищник: Коллекция бесплантно в хорошем качестве Описание: Американский вертолет был сбит партизанами в Южной Америке. Оставшийся в живых экипаж находится в плену. Центральное ... 10 10 16
Info! Золотая раздача, скачанное не засчитывается.
Торрент: Зарегистрирован [2020-04-18 14:59] · скачан: 98 раз
Статус: √ проверено
Размер: 86.17 GB
Как cкачать? Как скачать Хищник: Коллекция через торрент | UTorrent

28-11-2019 20:33  

Отключить всю рекламу на сайте

18-04-2020 17:35 Хищник: Коллекция Скачать торрент  

Однозначно золотоpb.wtf



18-04-2020 19:46 Хищник: Коллекция Скачать торрент  

pb.wtf



20-05-2021 17:05 Хищник: Коллекция Скачать торрент  

Встаньте на раздачу пожалуйстаpb.wtf



    Дорогой пользователь! Огромная просьба, поблагодарите релизера, оцените раздачу и оставьте свои комментарий, если Вы скачали Хищник: Коллекция через торрент бесплатно!
    Комментировать посты могут только пользователи прошедшие не сложную регистрацию
    Показать сообщения:    

    Хищник: Коллекция через торрент
    Скачать бесплатно Хищник: Коллекция
    Хищник: Коллекция скачать торрент
    Хищник: Коллекция смотреть онлайн
    Cкачать фильм Хищник: Коллекция бесплатно
    Хищник: Коллекция скачать торрент в хорошем качестве
    Хищник: Коллекция смотреть онлайн бесплатно в хорошем качестве


    Вы не можете начинать темы
    Вы не можете отвечать на сообщения
    Вы не можете редактировать свои сообщения
    Вы не можете удалять свои сообщения
    Вы не можете голосовать в опросах
    Вы не можете прикреплять файлы к сообщениям
    Вы можете скачивать файлы