2 сезон

iTunes

MVO

1

2 сезон

iTunes

iTunes

1 сезон

RePack

30

Новинка

ВАЖНО

ИГРА 18+

pack

RePack

MK11
pack

Легкие деньги

RePack

jed

RePack

fifa19

RePack

RDR2

RePack

NEED FOR SPEED™ PAYBACK

4 сезон

9 сезон

Бесстыжие 9 сезон

Все сериалы

все сериалы на PB.wtf

RePack

FAR CRY 5

Anonymous, доброй ночи, мы не успеваем собрать деньги на оплату серверов за декабрь и январь, помогите нам пожалуйста в это трудное время. В качестве благодарности мы отключим Вам всю рекламу на сайте (укажите свой ник в строку Ваше имя)!

×
  
Magnet ссылка

Поцелуй дракона / Kiss of the Dragon (Крис Наон) [2001 г., Боевик, триллер, драма, криминал, BDRip 720p / 60 FPS, Дубляж] от R.G. HD-Films pb.wtf

Поцелуй дракона через торрент pb.wtf

Размер: 2.98 GB | Добавлен: 9 мес. назад | Торрент скачан:128 раз
Скачать  

18-04-2020 15:35 Поцелуй дракона Скачать торрент  

Поцелуй дракона / Kiss of the Dragon
Год выпуска: : 2001
Страна: : Франция, США
Жанр: : Боевик, триллер, драма, криминал
Продолжительность: 01:38:15
Перевод: Дубляж
Субтитры: Russian, English

Режиссер: Крис Наон

Бюджет: $25 000 000
Премьера в мире: 25 июня 2001

rating

В ролях: Джет Ли, Бриджит Фонда, Чеки Карио, Макс Райан, Рик Янг, Берт Квук, Лоуренс Эшли, Сирил Раффаэлли, Дидье Азулай, Джон Форджэм, Пол Баррет, Кэнтаро Юри Йамашита, Колин Принц, Венсан Гло, Винсент Вонг, Стефан Жако, Стефан Неле, Петер Сакон Ли, Изабель Дуовелье, Янник Деррьен, Франческа Диска, Таира, Давид Габисон, Бертран Ваинтроп, Ален Зеф, Николя Эро, Жан-Марк Хубер, Франк Тиоццо, Джон Мачко, Клод Брекот, Жан-Жорж Вонжериште, Франсуа Нгуйен, Жослин Исаак, Раймон Камвэн, Урфе Купаки, Грегори Галин, Александр Компан


Сюжет фильма: Офицер китайской разведки приезжает из Гонконга в Париж, чтобы участвовать в опасной операции, цель которой - заманить в ловушку и взять с поличным крупного наркобарона. Но дела идут совершенно непредсказуемо. Герой попадает в двойную ловушку и становится подозреваемым в убийстве c неопровержимыми уликами против него. Его жизнь теперь зависит от того, сумеет ли он уйти от преследования и доказать свою невиновность.


Качество видео: BDRip 720p / 60 FPS
Формат: MKV
Видео кодек: H.264
Аудио кодек: AC3
Видео : x264, 1280 x 544 ( 2,35:1 ), 3964 kbps, 60,000 fps, ( 0.095 bpp)
Аудио : Русский, AC-3, 48.0 KHz, 6 ch, 384 Kbps
Релиз от:

скриншот   скриншот   скриншот   скриншот   скриншот   скриншот  Автор рипа: slaventi-69
x264 [info]: frame I:2345 Avg QP:16.93 size: 56797
x264 [info]: frame P:80261 Avg QP:17.91 size: 18973
x264 [info]: frame B:270792 Avg QP:20.17 size: 4661
x264 [info]: consecutive B-frames: 1.5% 2.6% 7.4% 12.0% 70.8% 5.7%


Общее
Уникальный идентификатор : 192989586349357877002540936212319797226 (0x9130713C929146D7112ABD23C35F7FEA)
Полное имя : F:\Kiss.of.the.Dragon.(2001).BDRip.720p.(60 Fps).mkv
Формат : Matroska
Версия формата : Version 4
Размер файла : 2,98 Гбайт
Продолжительность : 1 ч. 38 м.
Общий поток : 4352 Кбит/сек
Название фильма : Поцелуй дракона / Kiss of the Dragon (2001) BDRip 720p (60 Fps)
Дата кодирования : UTC 2020-04-17 09:37:55
Программа кодирования : mkvmerge v42.0.0 ('Overtime') 64-bit
Библиотека кодирования : libebml v1.3.10 + libmatroska v1.5.2

Видео
Идентификатор : 1
Формат : AVC
Формат/Информация : Advanced Video Codec
Профиль формата : High@L4.1
Настройки формата : CABAC / 8 Ref Frames
Параметр CABAC формата : Да
Параметр RefFrames формата : 8 кадров
Идентификатор кодека : V_MPEG4/ISO/AVC
Продолжительность : 1 ч. 38 м.
Битрейт : 3964 Кбит/сек
Ширина : 1280 пикселей
Высота : 544 пикселя
Соотношение сторон : 2,35:1
Режим частоты кадров : Постоянный
Частота кадров : 60,000 кадров/сек
Цветовое пространство : YUV
Субдискретизация насыщенности : 4:2:0
Битовая глубина : 8 бит
Тип развёртки : Прогрессивная
Бит/(Пиксели*Кадры) : 0.095
Размер потока : 2,72 Гбайт (91%)
Заголовок : slaventi-69 ( R.G. HD-Films | 60 fps )
Библиотека кодирования : x264 core 130 r2273 b3065e6
Настройки программы : cabac=1 / ref=8 / deblock=1:-1:-1 / analyse=0x3:0x133 / me=umh / subme=9 / psy=1 / psy_rd=1.00:0.00 / mixed_ref=1 / me_range=26 / chroma_me=1 / trellis=2 / 8x8dct=1 / cqm=0 / deadzone=21,11 / fast_pskip=0 / chroma_qp_offset=-2 / threads=6 / lookahead_threads=1 / sliced_threads=0 / nr=0 / decimate=1 / interlaced=0 / bluray_compat=0 / constrained_intra=0 / bframes=5 / b_pyramid=2 / b_adapt=2 / b_bias=0 / direct=3 / weightb=1 / open_gop=0 / weightp=2 / keyint=250 / keyint_min=23 / scenecut=40 / intra_refresh=0 / rc=crf / mbtree=0 / crf=17.3 / qcomp=0.60 / qpmin=0 / qpmax=69 / qpstep=4 / ip_ratio=1.40 / pb_ratio=1.30 / aq=1:1.00
Язык : English
Default : Да
Forced : Нет

Аудио
Идентификатор : 2
Формат : AC-3
Формат/Информация : Audio Coding 3
Коммерческое название : Dolby Digital
Идентификатор кодека : A_AC3
Продолжительность : 1 ч. 38 м.
Вид битрейта : Постоянный
Битрейт : 384 Кбит/сек
Каналы : 6 каналов
Channel layout : L R C LFE Ls Rs
Частота : 48,0 КГц
Частота кадров : 31,250 кадров/сек (1536 SPF)
Битовая глубина : 16 бит
Метод сжатия : С потерями
Размер потока : 270 Мбайт (9%)
Заголовок : Dub
Язык : Russian
ServiceKind/String : Complete Main
Default : Да
Forced : Нет

Текст #1
Идентификатор : 3
Формат : UTF-8
Идентификатор кодека : S_TEXT/UTF8
Идентификатор кодека/Информация : UTF-8 Plain Text
Продолжительность : 1 ч. 30 м.
Битрейт : 58 бит/сек
ElementCount : 660
Размер потока : 39,0 Кбайт (0%)
Заголовок : Full
Язык : Russian
Default : Нет
Forced : Нет

Текст #2
Идентификатор : 4
Формат : UTF-8
Идентификатор кодека : S_TEXT/UTF8
Идентификатор кодека/Информация : UTF-8 Plain Text
Продолжительность : 1 ч. 30 м.
Битрейт : 39 бит/сек
ElementCount : 746
Размер потока : 26,2 Кбайт (0%)
Заголовок : Full
Язык : English
Default : Нет
Forced : Нет

Текст #3
Идентификатор : 5
Формат : UTF-8
Идентификатор кодека : S_TEXT/UTF8
Идентификатор кодека/Информация : UTF-8 Plain Text
Продолжительность : 1 ч. 37 м.
Битрейт : 44 бит/сек
ElementCount : 949
Размер потока : 31,6 Кбайт (0%)
Заголовок : SDH
Язык : English
Default : Нет
Forced : Нет

Меню
00:00:00.000 : en:Main Titles
00:04:38.152 : en:Mr. Smith
00:10:41.765 : en:Welcome to Paris
00:16:30.906 : en:A Situation
00:24:25.839 : en:Double-Crossed
00:27:13.840 : en:Into the Fire
00:32:17.226 : en:Gare De L'est
00:43:15.342 : en:Our Best Man
00:51:37.802 : en:The Farmer's Daughter
00:57:39.455 : en:A Kind Person
01:04:31.909 : en:The Tour Boat Trip
01:07:27.835 : en:On the Run
01:11:29.118 : en:Help From Jessica
01:14:21.123 : en:A Tough Client
01:18:25.075 : en:The Witness
01:21:54.576 : en:Trust
01:28:48.531 : en:Jessica's Escape
01:31:53.341 : en:The Orphanage
01:33:24.598 : en:Liu Jian's Promise

Просьба к переливающим на другие сайты, в оформлении указывайте пожалуйста авторство группы R.G. HD-Films pb.wtf



Скачать Поцелуй дракона через торрент http://img10.lostpic.net/2016/03/04/21d31ca24a365f9cecb3a6482d7d0632.jpg Скачать фильм Поцелуй дракона через торрент бесплантно в хорошем качестве В ролях: Джет Ли, Бриджит Фонда, Чеки Карио, Макс Райан, Рик Янг, Берт Квук, Лоуренс Эшли, Сирил Раффаэлли, Дидье Азулай, Джон Форджэм, ... 10 10 12
Торрент: Зарегистрирован [2020-04-18 15:35] · скачан: 128 раз
Статус: √ проверено
Размер: 2.98 GB
Как cкачать? Как скачать Поцелуй дракона через торрент | UTorrent

28-11-2019 20:33  

Отключить всю рекламу на сайте

18-04-2020 17:44 Поцелуй дракона Скачать торрент  

абжаю лиpb.wtf



18-04-2020 20:13 Поцелуй дракона Скачать торрент  

Спасибо большое за фильм!!! Джет это что-то!!!pb.wtf



    Дорогой пользователь! Огромная просьба, поблагодарите релизера, оцените раздачу и оставьте свои комментарий, если Вы скачали Поцелуй дракона через торрент бесплатно! Внесите свою лепту в развитие PiratBit!
    Комментировать посты могут только пользователи прошедшие не сложную регистрацию
    Показать сообщения:    

    Поцелуй дракона через торрент
    Скачать бесплатно Поцелуй дракона
    Поцелуй дракона скачать торрент
    Поцелуй дракона смотреть онлайн
    Cкачать фильм Поцелуй дракона бесплатно
    Поцелуй дракона скачать торрент в хорошем качестве
    Поцелуй дракона смотреть онлайн бесплатно в хорошем качестве


    Вы не можете начинать темы
    Вы не можете отвечать на сообщения
    Вы не можете редактировать свои сообщения
    Вы не можете удалять свои сообщения
    Вы не можете голосовать в опросах
    Вы не можете прикреплять файлы к сообщениям
    Вы можете скачивать файлы