Ссылка на приватное зеркало нашего сайта всего за 1$. Внимание количество ограничено!!!

2 сезон

iTunes

1 сезон

1

iTunes

iTunes

iTunes

1 сезон

RePack

30

ИГРА 18+

pack

ВАЖНО

!!Акция!!

Alien_RageХит недели

RePack

MK11
pack

Забери бонус

RePack

jed

!!Акция!!

Alien_Rage

RePack

fifa19

RePack

Assassins Creed: Odyssey

RePack

NEED FOR SPEED™ PAYBACK

4 сезон

9 сезон

Бесстыжие 9 сезон

Все сериалы

все сериалы на PB.wtf

RePack

FAR CRY 5
  

Невеста / Сезон: 1 / Серии: 1-12 из 12 (Каринэ Фолиянц) [2016, мелодрама, WEB-DLRip] pb.wtf

Невеста через торрент pb.wtf

Размер: 7.97 GB | Добавлен: 6 мес. назад | Торрент скачан:14 раз
Скачать  

18-04-2020 19:29 Невеста Скачать торрент  

Невеста
Год выпуска: 2016
Страна: Россия
Жанр: мелодрама
Продолжительность: ~ 00:51:40
Субтитры: отсутствуют

Режиссер: Каринэ Фолиянц



В ролях: Станислав Бондаренко, Ксения Роменкова, Александр Лобанов (III), Марина Барсукова, Татьяна Севрюкова, Раиса Рязанова, Любовь Руденко, Андрей Егоров, Валентин Терехов, Марина Блейк, Михаил Самохвалов, Геннадий Егоров (II), Анатолий Зиновенко, Жанна Терлецкая, Ольга Котляренко, Евгений Чернорай, Олег Флеер, Илья Капанец, Назлы Сеитаблаева

Описание: Эта история трех людей. Двух мужчин и одной женщины. Любовь, длиною в почти в двадцать лет. Друзья, ставшие врагами, а потом простившие друг друга. И женщина, которая близка им обоим… Они воевали вместе – Сергей и Павел. Павел спас друга от неминуемой гибели. Они побывали в плену и бежали из плена. К счастью, оба остались живы. А потом Сергей справлял свадьбу. Пригласил на нее своего «брата» - так он теперь называл Павла. И за день до свадьбы невеста и друг жениха влюбились друг в друга. Это история страстной любви, необычной и сильной. Перед Леной стоит непростой выбор – «тихая гавань» в лице мужа Сергея, от которого она родила двух детей, или страстная любовь к яркому Павлу.

Качество: WEB-DLRip
Формат: AVI

Видео: 720x400 (1.80:1), 25 fps, XviD build 73 ~1650 kbps avg, 0.23 bit/pixel
Аудио: 48.0 kHz, AC3 Dolby Digital, 2/0 (L,R) ch, ~ 192 kbps
скриншот  скриншот  скриншот  скриншот  

General
Complete name: C:01.Невеста.(2016).WEB-DLRip.by.Nicodem.Files-x.avi
Format: AVI
Format/Info: Audio Video Interleave
File size: 680 MiB
Duration: 51mn 32s
Overall bit rate: 1 845 Kbps
Writing application: VirtualDubMod 1.5.10.3 | www.virtualdub-fr.org || (build 2550/release)
Writing library: VirtualDubMod build 2550/release

Video
ID: 0
Format: MPEG-4 Visual
Format profile: Advanced Simple@L5
Format settings, BVOP: 1
Format settings, QPel: No
Format settings, GMC: No warppoints
Format settings, Matrix: Custom
Codec ID: XVID
Codec ID/Hint: XviD
Duration: 51mn 32s
Bit rate: 1 643 Kbps
Width: 720 pixels
Height: 400 pixels
Display aspect ratio: 16:9
Frame rate: 25.000 fps
Color space: YUV
Chroma subsampling: 4:2:0
Bit depth: 8 bits
Scan type: Progressive
Compression mode: Lossy
Bits/(Pixel*Frame): 0.228
Stream size: 606 MiB (89%)
Writing library: XviD 73

Audio
ID: 1
Format: AC-3
Format/Info: Audio Coding 3
Mode extension: CM (complete main)
Codec ID: 2000
Duration: 51mn 32s
Bit rate mode: Constant
Bit rate: 192 Kbps
Channel(s): 2 channels
Channel positions: Front: L R
Sampling rate: 48.0 KHz
Bit depth: 16 bits
Compression mode: Lossy
Stream size: 70.8 MiB (10%)
Alignment: Split accross interleaves
Interleave, duration: 40 ms (1.00 video frame)
Interleave, preload duration: 500 ms

Внимание! Раздача ведётся путём добавления новых серий. При каждом добавлении создаётся новый торрент.
Чтобы начать докачку новой серии, пользователям необходимо сделать следующее:
1. Остановить скачивание.
2. Удалить старый торрент у себя из клиента (старые серии удалять не надо).
3. Скачать новый торрент и запустить его у себя в клиенте вместо старого, при этом указать клиенту путь в старую папку куда и должно происходить скачивание новых серий. Ваш клиент при этом должен произвести хеширование (проверку) старой папки и будет докачивать только те серии, которых у вас ещё нет. Старые серии при этом не удаляются, а продолжают раздаваться! Eсли вы уже удалили старые серии, то предотвратить повторную закачку старых серий можно, отжав галочку в соответствующих местах при запуске нового торрента.
pb.wtf



Скачать Невеста через торрент https://i111.fastpic.ru/big/2020/0418/1f/90e3b00d8f78b0f5d3fc519999bc941f.jpg Скачать фильм Невеста через торрент бесплантно в хорошем качестве Описание: Эта история трех людей. Двух мужчин и одной женщины. Любовь, длиною в почти в двадцать лет. Друзья, ставшие врагами, а потом ... 10 10 4
Торрент: Зарегистрирован [2020-04-24 17:24] · скачан: 14 раз
Статус: √ проверено
Размер: 7.97 GB
Как cкачать? Как скачать Невеста через торрент | qTorrent

% Раздел Тема Автор DL S | L
Наши сериалы [ 7.84 GB ] Невеста / Сезон: 1 / Серии: 1-12 из 12 [2016 WEB-DLRip-AVC] bober100 Скачать
1 | 0

28-11-2019 20:33  

Отключить всю рекламу на сайте

    Дорогой пользователь! Огромная просьба, поблагодарите релизера, оцените раздачу и оставьте свои комментарий, если Вы скачали Невеста через торрент бесплатно! Внесите свою лепту в развитие PiratBit!
    Комментировать посты могут только пользователи прошедшие не сложную регистрацию
    Показать сообщения:    

    Невеста через торрент
    Скачать бесплатно Невеста
    Невеста скачать торрент
    Невеста смотреть онлайн
    Cкачать фильм Невеста бесплатно
    Невеста скачать торрент в хорошем качестве
    Невеста смотреть онлайн бесплатно в хорошем качестве


    Вы не можете начинать темы
    Вы не можете отвечать на сообщения
    Вы не можете редактировать свои сообщения
    Вы не можете удалять свои сообщения
    Вы не можете голосовать в опросах
    Вы не можете прикреплять файлы к сообщениям
    Вы можете скачивать файлы