2 сезон

iTunes

1 сезон

1

iTunes

iTunes

iTunes

1 сезон

RePack

30

ИГРА 18+

pack

ВАЖНО

!!Акция!!

Alien_RageХит недели

RePack

MK11
pack

Забери бонус

RePack

jed

!!Акция!!

Alien_Rage

RePack

fifa19

RePack

Assassins Creed: Odyssey

RePack

NEED FOR SPEED™ PAYBACK

4 сезон

9 сезон

Бесстыжие 9 сезон

Все сериалы

все сериалы на PB.wtf

RePack

FAR CRY 5
  

Самая любимая / Серии: 1-2 из 2 (Пётр Степин) [2020, Мелодрама, HDTV 1080i] pb.wtf

Самая любимая через торрент pb.wtf

Раздают: 1 [ 0 KB/s ]
Размер: 5.44 GB | Добавлен: 6 мес. назад | Торрент скачан:14 раз
Скачать  

18-04-2020 20:57 Самая любимая Скачать торрент  

Самая любимая
Год выпуска: 2020
Страна: Россия, Беларусь
Жанр: Мелодрама
Продолжительность: ~ 01:41:40
Субтитры: отсутствуют

Режиссер: Пётр Степин



В ролях: Валерия Бурдужа, Юрий Батурин, Денис Васильев, Евгения Аникей, Инна Коляда

Описание: Талантливый архитектор Татьяна влюблена в своего коллегу Вадима. Молодые люди счастливы и планируют пожениться. Но Вадим совсем не тот, каким Лиза его себе представляет. Как только он знакомится с дочерью бизнесмена Лизой Савицкой, беременная Таня сразу же становится для него помехой. Ещё вчера они были счастливой парой, сегодня из-за Вадима Таня не только теряет ребенка, но и саму возможность стать матерью. Теперь она больше всего на свете мечтает отомстить. Ради этого она идёт на обман, но… оказывается в собственной ловушке.

Качество: HDTV 1080i
Формат: TS

Видео: MPEG-4 AVC, ~ 7100 Кбит/с, 1920x1080, 25 кадр/с
Аудио: Русский (MP2, 2 ch, 192 Кбит/с)
скриншот  скриншот  скриншот  скриншот  

Общее
Идентификатор : 1 (0x1)
Полное имя : C:Samaya.lyubimaya.2018.HDTV.1080i.ts
Формат : MPEG-TS
Размер файла : 5,44 Гбайт
Продолжительность : 1 ч. 41 м.
Режим общего битрейта : Переменный
Общий поток : 7660 Кбит/сек

Видео
Идентификатор : 2911 (0xB5F)
Идентификатор меню : 1485 (0x5CD)
Формат : AVC
Формат/Информация : Advanced Video Codec
Профиль формата : High@L4
Настройки формата : CABAC / 4 Ref Frames
Параметр CABAC формата : Да
Параметр RefFrames формата : 4 кадра
Идентификатор кодека : 27
Продолжительность : 1 ч. 41 м.
Битрейт : 7088 Кбит/сек
Ширина : 1920 пикселей
Высота : 1080 пикселей
Соотношение сторон : 16:9
Частота кадров : 25,000 кадров/сек
Цветовое пространство : YUV
Субдискретизация насыщенности : 4:2:0
Битовая глубина : 8 бит
Тип развёртки : MBAFF
Метод сохранения типа развёртки : Чередующиеся поля
Порядок развёртки : Верхнее поле первое
Бит/(Пиксели*Кадры) : 0.137
Размер потока : 5,03 Гбайт (93%)

Аудио
Идентификатор : 2912 (0xB60)
Идентификатор меню : 1485 (0x5CD)
Формат : MPEG Audio
Версия формата : Version 1
Профиль формата : Layer 2
Идентификатор кодека : 3
Продолжительность : 1 ч. 41 м.
Вид битрейта : Постоянный
Битрейт : 192 Кбит/сек
Каналы : 2 канала
Частота : 48,0 КГц
Частота кадров : 41,667 кадра/сек (1152 SPF)
Метод сжатия : С потерями
Задержка видео : -200 мс.
Размер потока : 140 Мбайт (3%)
Язык : Russian

pb.wtf



Скачать Самая любимая через торрент https://c.radikal.ru/c01/2004/e5/f70d731a783e.jpg Скачать фильм Самая любимая через торрент бесплантно в хорошем качестве Описание: Талантливый архитектор Татьяна влюблена в своего коллегу Вадима. Молодые люди счастливы и планируют пожениться. Но Вадим совсем ... 10 10 2
Торрент: Зарегистрирован [2020-04-18 20:57] · скачан: 14 раз
Статус: √ проверено
Размер: 5.44 GB
Как cкачать? Как скачать Самая любимая через торрент | qTorrent

% Раздел Тема Автор DL S | L
Наши сериалы [ 2.62 GB ] Самая любимая / Серии: 1-2 из 2 [2020 Мело HDTVRip 720p] bober100 Скачать
1 | 0
Наши сериалы [ 1.35 GB ] Самая любимая / Серии: 1-2 из 2 [2020 Мело SATRip] bober100 Скачать
1 | 0

28-11-2019 20:33  

Отключить всю рекламу на сайте

    Дорогой пользователь! Огромная просьба, поблагодарите релизера, оцените раздачу и оставьте свои комментарий, если Вы скачали Самая любимая через торрент бесплатно! Внесите свою лепту в развитие PiratBit!
    Комментировать посты могут только пользователи прошедшие не сложную регистрацию
    Показать сообщения:    

    Самая любимая через торрент
    Скачать бесплатно Самая любимая
    Самая любимая скачать торрент
    Самая любимая смотреть онлайн
    Cкачать фильм Самая любимая бесплатно
    Самая любимая скачать торрент в хорошем качестве
    Самая любимая смотреть онлайн бесплатно в хорошем качестве


    Вы не можете начинать темы
    Вы не можете отвечать на сообщения
    Вы не можете редактировать свои сообщения
    Вы не можете удалять свои сообщения
    Вы не можете голосовать в опросах
    Вы не можете прикреплять файлы к сообщениям
    Вы можете скачивать файлы