2 сезон

iTunes

MVO

1

2 сезон

iTunes

iTunes

1 сезон

RePack

30

Новинка

ВАЖНО

ИГРА 18+

pack

RePack

MK11
pack

Легкие деньги

RePack

jed

RePack

fifa19

RePack

RDR2

RePack

NEED FOR SPEED™ PAYBACK

4 сезон

9 сезон

Бесстыжие 9 сезон

Все сериалы

все сериалы на PB.wtf

RePack

FAR CRY 5

Anonymous, добрый вечер, мы не успеваем собрать деньги на оплату серверов за декабрь и январь, помогите нам пожалуйста в это трудное время. В качестве благодарности мы отключим Вам всю рекламу на сайте (укажите свой ник в строку Ваше имя)!

×
  
Magnet ссылка

Чем мы заняты в тени / Реальные упыри / What We Do in the Shadows / Сезон: 2 / Серии: 1-10 из 10 (Джемейн Клемент) [2020, комедия, ужасы, WEB-DL 1080p] 2xMVO [Lostfilm, NewStudio] pb.wtf

Чем мы заняты в тени через торрент pb.wtf

Размер: 18.25 GB | Добавлен: 6 мес. назад | Торрент скачан:38 раз
Скачать  

19-04-2020 10:51 Чем мы заняты в тени Скачать торрент  

Чем мы заняты в тени | Реальные упыри | What We Do in the Shadows
«***»
Производство: США
Год выпуска: 2020
Жанр: комедия, ужасы
Продолжительность: ~ 00:30:00 серия
Премьера (мир): 27 марта 2019
Перевод:
Профессиональный (многоголосый закадровый) | |Lostfilm|
Профессиональный (многоголосый закадровый) | |NewStudio|
Субтитры: английские (SDH)

Режиссёр: Джемейн Клемент, Джейсон Уолинер, Тайка Вайтити

В ролях: Кайван Новак, Харви Гильен, Натасия Деметриу, Мэтт Берри, Марк Прокш, Крис Перфетти, Вероника Словиковска, Александра Хенриксон, Шиван Фэллон

Описание: В одном из причудливых домов Статен-Айленда проживает странная компания со странными именами и образом жизни. Нандор (Кайван Новак) когда-то был свирепым воином Османской империи, а потом стал вампиром, но лидерских качеств не растерял, поэтому провозгласил себя главой импровизированной коммуны и периодически пытается придумывать какие-то правила и раздавать указы, хотя никто его всерьез не воспринимает. Его соседями стали жулик и пижон Ласло (Мэтт Берри) и его клыкастая подружка Надья (Натасия Деметриу) — парочка, которая любит вспоминать свои любовные похождения из средневекового прошлого. Они перебрались из Европы в Нью-Йорк пару столетий назад потому, что, как они сами утверждают, там их невзлюбили за цвет кожи. Ну и за то, что едят людей. Справляться с реалиями современной жизни, например, оплачивать товары картой или оставлять подпись отпечатком пальца, им помогает бестолковый фамильяр Гильермо (Харви Гильен), мечтающий однажды превратиться в кровопийцу. Кроме того, есть в компании и свой изгой — энергетический вампир Колин (Марк Прокш), который высасывает из людей силы долгими скучными разговорами. Не нравится он и олдовым кровососам, так что они стараются его избегать, хоть и живут в одном доме. И все у этого диковатого сообщества идет более-менее спокойно, пока они не получают пафосное письмо от барона Афанаса (Даг Джонс) — зловещего темного лорда, который вознамерился навестить своих подопечных, чтобы напомнить им о главной цели существования всех вампиров — порабощение людишек и тотальное доминирование в мире. Но разве можно заставить выполнять столь сложную миссию того, кто хочет по большей части развлекаться, поедая девственников-ролевиков и подглядывая за симпатичными онанистами через окно? С другой стороны, ослушаться темного лорда себе дороже — последствия могут быть непредсказуемыми для всех...



Качество видео: WEB-DL 1080p
Формат: MKV

Видео: MPEG-4 AVC, 1920 x 1080 (1.778), 23.976 fps, ~9 331 kbps
Аудио Rus: AC-3, 48 kHz, 2 ch, 384 kbps |LostFilm|
Аудио Rus: AC-3, 48 kHz, 6 ch, 384 kbps |NewStudio|
Аудио Eng: E-AC-3, 48 kHz, 6 ch, 640 kbps |Original|
скриншот  скриншот  скриншот  скриншот  

Общее
Уникальный идентификатор : 112649889269529187190129647362929823125 (0x54BF9459F48FE470FCA5EF5289978D95)
Полное имя : E:\_Сериалы\_Сериалы\Реальные упыри\What.We.Do.in.the.Shadows.S02.WEBDL.1080p.2хRus.Eng\What.We.Do.in.the.Shadows.S02E01.WEBDL.1080p.RGzsRutracker.mkv
Формат : Matroska
Версия формата : Version 4
Размер файла : 1,86 Гбайт
Продолжительность : 24 м. 49 с.
Общий поток : 10,7 Мбит/сек
Дата кодирования : UTC 2020-04-19 08:17:47
Программа кодирования : mkvmerge v45.0.0 ('Heaven in Pennies') 64-bit
Библиотека кодирования : libebml v1.3.10 + libmatroska v1.5.2

Видео
Идентификатор : 1
Формат : AVC
Формат/Информация : Advanced Video Codec
Профиль формата : High@L4
Настройки формата : CABAC / 4 Ref Frames
Параметр CABAC формата : Да
Параметр RefFrames формата : 4 кадра
Идентификатор кодека : V_MPEG4/ISO/AVC
Продолжительность : 24 м. 49 с.
Вид битрейта : Постоянный
Битрейт : 9 331 Кбит/сек
Номинальный битрейт : 10 000 Кбит/сек
Ширина : 1 920 пикселей
Высота : 1 080 пикселей
Соотношение сторон : 16:9
Режим частоты кадров : Постоянный
Частота кадров : 23,976 (24000/1001) кадра/сек
Цветовое пространство : YUV
Субдискретизация насыщенности : 4:2:0
Битовая глубина : 8 бит
Тип развёртки : Прогрессивная
Бит/(Пиксели*Кадры) : 0.188
Размер потока : 1,62 Гбайт (87%)
Язык : English
Default : Да
Forced : Нет
Цветовой диапазон : Limited
Основные цвета : BT.709
Характеристики трансфера : BT.709
Коэффициенты матрицы : BT.709

Аудио #1
Идентификатор : 2
Формат : AC-3
Формат/Информация : Audio Coding 3
Коммерческое название : Dolby Digital
Идентификатор кодека : A_AC3
Продолжительность : 24 м. 49 с.
Вид битрейта : Постоянный
Битрейт : 384 Кбит/сек
Каналы : 2 канала
Channel layout : L R
Частота : 48,0 КГц
Частота кадров : 31,250 кадров/сек (1536 SPF)
Метод сжатия : С потерями
Размер потока : 68,2 Мбайт (4%)
Заголовок : Lostfilm
Язык : Russian
Service kind : Complete Main
Default : Да
Forced : Нет

Аудио #2
Идентификатор : 3
Формат : AC-3
Формат/Информация : Audio Coding 3
Коммерческое название : Dolby Digital
Идентификатор кодека : A_AC3
Продолжительность : 24 м. 49 с.
Вид битрейта : Постоянный
Битрейт : 384 Кбит/сек
Каналы : 6 каналов
Channel layout : L R C LFE Ls Rs
Частота : 48,0 КГц
Частота кадров : 31,250 кадров/сек (1536 SPF)
Метод сжатия : С потерями
Размер потока : 68,2 Мбайт (4%)
Заголовок : NewStudio
Язык : Russian
Service kind : Complete Main
Default : Нет
Forced : Нет

Аудио #3
Идентификатор : 4
Формат : E-AC-3
Формат/Информация : Enhanced AC-3
Коммерческое название : Dolby Digital Plus
Идентификатор кодека : A_EAC3
Продолжительность : 24 м. 49 с.
Вид битрейта : Постоянный
Битрейт : 640 Кбит/сек
Каналы : 6 каналов
Channel layout : L R C LFE Ls Rs
Частота : 48,0 КГц
Частота кадров : 31,250 кадров/сек (1536 SPF)
Метод сжатия : С потерями
Размер потока : 114 Мбайт (6%)
Заголовок : English
Язык : English
Service kind : Complete Main
Default : Нет
Forced : Нет

Текст #1
Идентификатор : 5
Формат : UTF-8
Идентификатор кодека : S_TEXT/UTF8
Идентификатор кодека/Информация : UTF-8 Plain Text
Продолжительность : 24 м. 41 с.
Битрейт : 98 бит/сек
Count of elements : 553
Размер потока : 17,8 Кбайт (0%)
Заголовок : English
Язык : English
Default : Нет
Forced : Нет

Текст #2
Идентификатор : 6
Формат : UTF-8
Идентификатор кодека : S_TEXT/UTF8
Идентификатор кодека/Информация : UTF-8 Plain Text
Продолжительность : 24 м. 41 с.
Битрейт : 106 бит/сек
Count of elements : 592
Размер потока : 19,3 Кбайт (0%)
Заголовок : SDH
Язык : English
Default : Нет
Forced : Нет

Раздача ведётся путём добавления новых серий; при каждом добавлении создаётся новый торрент.
Чтобы начать докачку новой серии, пользователям необходимо сделать следующее:
1. остановить скачивание,
2. удалить старый торрент у себя из клиента (старые серии удалять не надо),
3. скачать новый торрент и запустить его у себя в клиенте вместо старого, при этом указать клиенту путь в старую папку, куда и должно происходить скачивание новых серий.

Ваш клиент при этом должен произвести хеширование (проверку) старой папки (если не производит сам - помогите ему сделать это), и будет докачивать только те серии которых у вас ещё нет. Старые серии при этом не удаляются, а продолжают раздаваться!

Eсли вы уже удалили старые серии, то предотвратить повторную закачку старых серий можно, отжав галочку в соответствующих местах при запуске нового торрента. По возможности, желательно не удалять старые серии как можно дольше, чтобы релизёр не столько продолжал раздавать старые серии, а смог сконцентрироваться на новых.

Совет для тех, кто не хочет ждать перехеширования:
Создайте ещё одну папку рядом с папкой сериала (рядом, а не в ней!!!). Каждую новую серию после удачной загрузки копируйте в новую папку так чтобы ваша основная папка всегда была пуста. Когда ваш новый торрент предложит вам закачать все файлы, выберете только последнюю. Для сидирования же укажите адрес новой папки.

Как закачать отдельный файл из торрента или докачать ранее пропущенные файлы торрента!
pb.wtf



Скачать Чем мы заняты в тени через торрент https://i4.imageban.ru/out/2020/04/19/0d1c7acfc3881575e5435cc3a9bc1d44.png Скачать фильм Чем мы заняты в тени через торрент бесплантно в хорошем качестве Описание: В одном из причудливых домов Статен-Айленда проживает странная компания со странными именами и образом жизни. Нандор (Кайван ... 10 10 4
Торрент: Зарегистрирован [2020-07-17 17:18] · скачан: 38 раз
Статус: √ проверено
Размер: 18.25 GB
Как cкачать? Как скачать Чем мы заняты в тени через торрент | UTorrent

% Раздел Тема Автор DL S | L
Зарубежные сериалы [ 1.59 GB ] Чем мы заняты в тени / Реальные упыри / What We Do in the Shadows / Сезон: 2 / Серии: 1-5 из 10 [2020 WEB-DLRip] MVO [NewStudio] bober100 Скачать
1 | 0
Зарубежные сериалы [ 1.93 GB ] Чем мы заняты в тени / Реальные упыри / What We Do in the Shadows / Сезон: 2 / Серии: 1-2 из 10 [2020 WEB-DL 720p] MVO [HDRezka Studio] bober100 Скачать
1 | 0

28-11-2019 20:33  

Отключить всю рекламу на сайте

    Дорогой пользователь! Огромная просьба, поблагодарите релизера, оцените раздачу и оставьте свои комментарий, если Вы скачали Чем мы заняты в тени через торрент бесплатно! Внесите свою лепту в развитие PiratBit!
    Комментировать посты могут только пользователи прошедшие не сложную регистрацию
    Показать сообщения:    

    Чем мы заняты в тени через торрент
    Скачать бесплатно Чем мы заняты в тени
    Чем мы заняты в тени скачать торрент
    Чем мы заняты в тени смотреть онлайн
    Cкачать фильм Чем мы заняты в тени бесплатно
    Чем мы заняты в тени скачать торрент в хорошем качестве
    Чем мы заняты в тени смотреть онлайн бесплатно в хорошем качестве


    Вы не можете начинать темы
    Вы не можете отвечать на сообщения
    Вы не можете редактировать свои сообщения
    Вы не можете удалять свои сообщения
    Вы не можете голосовать в опросах
    Вы не можете прикреплять файлы к сообщениям
    Вы можете скачивать файлы