Ссылка на приватное зеркало нашего сайта всего за 1$. Внимание количество ограничено!!!

2 сезон

iTunes

1 сезон

1

2 сезон

2 сезон

iTunes

1 сезон

RePack

30

Ultimate

ВАЖНО

ИГРА 18+

pack

RePack

MK11
pack

Забери бонус

RePack

jed

!!Акция!!

Alien_Rage

RePack

fifa19

RePack

Assassins Creed: Odyssey

RePack

NEED FOR SPEED™ PAYBACK

4 сезон

9 сезон

Бесстыжие 9 сезон

Все сериалы

все сериалы на PB.wtf

RePack

FAR CRY 5
  

Чем мы заняты в тени / Реальные упыри / What We Do in the Shadows / Сезон: 2 / Серии: 1-5 из 10 (Джемейн Клемент) [2020, комедия, ужасы, WEB-DLRip] MVO [NewStudio] pb.wtf

Чем мы заняты в тени через торрент pb.wtf

Раздают: 1 [ 0 KB/s ]
Размер: 1.59 GB | Добавлен: 6 мес. назад | Торрент скачан:10 раз
Скачать  

19-04-2020 13:35 Чем мы заняты в тени Скачать торрент  

Чем мы заняты в тени | Реальные упыри | What We Do in the Shadows
«***»
Производство: США
Год выпуска: 2020
Жанр: комедия, ужасы
Продолжительность: ~ 00:30:00 серия
Премьера (мир): 27 марта 2019
Перевод: Профессиональный (многоголосый закадровый) | |NewStudio|
Субтитры: Русские (Forced), английские

Режиссёр: Джемейн Клемент, Джейсон Уолинер, Тайка Вайтити

В ролях: Кайван Новак, Харви Гильен, Натасия Деметриу, Мэтт Берри, Марк Прокш, Крис Перфетти, Вероника Словиковска, Александра Хенриксон, Шиван Фэллон

Описание: В одном из причудливых домов Статен-Айленда проживает странная компания со странными именами и образом жизни. Нандор (Кайван Новак) когда-то был свирепым воином Османской империи, а потом стал вампиром, но лидерских качеств не растерял, поэтому провозгласил себя главой импровизированной коммуны и периодически пытается придумывать какие-то правила и раздавать указы, хотя никто его всерьез не воспринимает. Его соседями стали жулик и пижон Ласло (Мэтт Берри) и его клыкастая подружка Надья (Натасия Деметриу) — парочка, которая любит вспоминать свои любовные похождения из средневекового прошлого. Они перебрались из Европы в Нью-Йорк пару столетий назад потому, что, как они сами утверждают, там их невзлюбили за цвет кожи. Ну и за то, что едят людей. Справляться с реалиями современной жизни, например, оплачивать товары картой или оставлять подпись отпечатком пальца, им помогает бестолковый фамильяр Гильермо (Харви Гильен), мечтающий однажды превратиться в кровопийцу. Кроме того, есть в компании и свой изгой — энергетический вампир Колин (Марк Прокш), который высасывает из людей силы долгими скучными разговорами. Не нравится он и олдовым кровососам, так что они стараются его избегать, хоть и живут в одном доме. И все у этого диковатого сообщества идет более-менее спокойно, пока они не получают пафосное письмо от барона Афанаса (Даг Джонс) — зловещего темного лорда, который вознамерился навестить своих подопечных, чтобы напомнить им о главной цели существования всех вампиров — порабощение людишек и тотальное доминирование в мире. Но разве можно заставить выполнять столь сложную миссию того, кто хочет по большей части развлекаться, поедая девственников-ролевиков и подглядывая за симпатичными онанистами через окно? С другой стороны, ослушаться темного лорда себе дороже — последствия могут быть непредсказуемыми для всех...



Качество: WEB-DLRip
Формат: AVI

Видео: XviD, 720x400, 23,976 fps, ~ 1600 kbps
Аудио#1: 48 kHz, AC3 2 ch, ~192 kbps|NewStudio|
Аудио#2: 48 kHz, AC3 2 ch, ~192 kbps
скриншот  скриншот  скриншот  скриншот  

Format : AVI
Format/Info : Audio Video Interleave
File size : 327 MiB
Duration : 22mn 53s
Overall bit rate : 1 998 Kbps
Movie name : Чем мы заняты в тени 2х01: Воскрешение
Director : Бёдвар (WEB-DLRip 400p)
Writing application : VirtualDubModRus 1.5.10.2 (build 2542/release)
Comment : 19.04.2020

Video
ID : 0
Format : MPEG-4 Visual
Format profile : Advanced Simple@L5
Format settings, BVOP : 1
Format settings, QPel : No
Format settings, GMC : No warppoints
Format settings, Matrix : Default (MPEG)
Codec ID : XVID
Codec ID/Hint : XviD
Duration : 22mn 53s
Bit rate : 1 600 Kbps
Width : 720 pixels
Height : 400 pixels
Display aspect ratio : 16:9
Frame rate : 23.976 (24000/1001) fps
Color space : YUV
Chroma subsampling : 4:2:0
Bit depth : 8 bits
Scan type : Progressive
Compression mode : Lossy
Bits/(Pixel*Frame) : 0.232
Stream size : 262 MiB (80%)
Writing library : XviD 67

Audio #1
ID : 1
Format : AC-3
Format/Info : Audio Coding 3
Mode extension : CM (complete main)
Format settings, Endianness : Big
Codec ID : 2000
Duration : 22mn 53s
Bit rate mode : Constant
Bit rate : 192 Kbps
Channel(s) : 2 channels
Channel positions : Front: L R
Sampling rate : 48.0 KHz
Frame rate : 31.250 fps (1536 spf)
Compression mode : Lossy
Stream size : 31.4 MiB (10%)
Alignment : Split accross interleaves
Interleave, duration : 42 ms (1.00 video frame)
Interleave, preload duratio : 500 ms
Title : NewStudio (rus)

Audio #2
ID : 2
Format : AC-3
Format/Info : Audio Coding 3
Mode extension : CM (complete main)
Format settings, Endianness : Big
Codec ID : 2000
Duration : 22mn 53s
Bit rate mode : Constant
Bit rate : 192 Kbps
Channel(s) : 2 channels
Channel positions : Front: L R
Sampling rate : 48.0 KHz
Frame rate : 31.250 fps (1536 spf)
Compression mode : Lossy
Stream size : 31.4 MiB (10%)
Alignment : Split accross interleaves
Interleave, duration : 42 ms (1.00 video frame)
Interleave, preload duratio : 500 ms
Title : Original (eng)

Внимание! Раздача ведётся путём добавления новых серий; при каждом добавлении создаётся новый торрент. Чтобы начать докачку новой серии,пользователям необходимо сделать следующее:
(1) остановить скачивание,
(2) удалить старый торрент у себя из клиента (старые серии удалять не надо),
(3) скачать новый торрент и запустить его у себя в клиенте вместо старого, при этом указать клиенту путь в старую папку куда и должнопроисходить скачивание новых серий.

Ваш клиент при этом должен произвести хеширование (проверку) старой папки (если не производит сам - помогите ему сделать это), и будет докачивать только те серии
которых у вас ещё нет. Старые серии при этом не удаляются, а продолжают раздаваться!

Eсли вы уже удалили старые серии, то предотвратить повторную закачку старых серий можно, отжав галочку в соответствующих местах при запуске нового торрента.

По возможности, желательно не удалять старые серии как можно дольше чтобы релизёр не столько продолжал раздавать старые серии, а смог сконцентрироваться на новых.

pb.wtf



Скачать Чем мы заняты в тени через торрент http://i111.fastpic.ru/big/2020/0416/8b/ef69a7c5184435b514fcbe4077b3ba8b.png Скачать фильм Чем мы заняты в тени через торрент бесплантно в хорошем качестве Описание: В одном из причудливых домов Статен-Айленда проживает странная компания со странными именами и образом жизни. Нандор (Кайван ... 10 10 2
Торрент: Зарегистрирован [2020-05-11 10:47] · скачан: 10 раз
Статус: √ проверено
Размер: 1.59 GB
Как cкачать? Как скачать Чем мы заняты в тени через торрент | qTorrent

28-11-2019 20:33  

Отключить всю рекламу на сайте

    Дорогой пользователь! Огромная просьба, поблагодарите релизера, оцените раздачу и оставьте свои комментарий, если Вы скачали Чем мы заняты в тени через торрент бесплатно! Внесите свою лепту в развитие PiratBit!
    Комментировать посты могут только пользователи прошедшие не сложную регистрацию
    Показать сообщения:    

    Чем мы заняты в тени через торрент
    Скачать бесплатно Чем мы заняты в тени
    Чем мы заняты в тени скачать торрент
    Чем мы заняты в тени смотреть онлайн
    Cкачать фильм Чем мы заняты в тени бесплатно
    Чем мы заняты в тени скачать торрент в хорошем качестве
    Чем мы заняты в тени смотреть онлайн бесплатно в хорошем качестве


    Вы не можете начинать темы
    Вы не можете отвечать на сообщения
    Вы не можете редактировать свои сообщения
    Вы не можете удалять свои сообщения
    Вы не можете голосовать в опросах
    Вы не можете прикреплять файлы к сообщениям
    Вы можете скачивать файлы