Ссылка на приватное зеркало нашего сайта всего за 1$. Внимание количество ограничено!!!

2 сезон

iTunes

1 сезон

1

iTunes

iTunes

iTunes

1 сезон

RePack

30

ИГРА 18+

pack

ВАЖНО

!!Акция!!

Alien_RageХит недели

RePack

MK11
pack

Забери бонус

RePack

jed

!!Акция!!

Alien_Rage

RePack

fifa19

RePack

Assassins Creed: Odyssey

RePack

NEED FOR SPEED™ PAYBACK

4 сезон

9 сезон

Бесстыжие 9 сезон

Все сериалы

все сериалы на PB.wtf

RePack

FAR CRY 5
  

Снайпер. Офицер СМЕРШ / Сезон: 1 / Серии: 1-4 из 4 (Алексей Мурадов) [2020, Военный, мелодрама, WEB-DL 1080p] pb.wtf

Снайпер. Офицер СМЕРШ через торрент pb.wtf

Раздают: 3 [ 0 KB/s ]
Размер: 6.36 GB | Добавлен: 6 мес. назад | Торрент скачан:286 раз
Скачать  

19-04-2020 15:21 Снайпер. Офицер СМЕРШ Скачать торрент  

Снайпер. Офицер СМЕРШ Год выпуска: 2020
Страна: Россия, Беларусь
Жанр: Военный, мелодрама
Продолжительность: ~ 00:45:00
Субтитры: отсутствуют

Режиссер: Алексей Мурадов



В ролях: Никита Ефремов, Мария Андреева, Павел Делонг, Константин Милованов, Жан-Марк Биркхольц, Дмитрий Арбенин, Юрий Цурило

Описание: История непримиримого противостояния двух профессиональных снайперов, старшего лейтенанта особого отдела Егорова и лейтенанта Лотера Фон Дибитца, начавшаяся в 1943 году в осадном Сталинграде и продолжившаяся в 1944 году в лесах Белоруссии.

Качество: WEB-DL 1080p
Формат: MKV

Видео: MPEG4 AVC Video, H264, 1920x1080, 25 fps, ~5100 kbps, 0.098 bit/pixel
Аудио: 48.0 kHz, AC3 Dolby Digital, 2/0 (L,R) ch, ~ 192 kbps
скриншот  скриншот  скриншот  скриншот  скриншот  

General
Unique ID : 242700741788171200025325581395968599726 (0xB696766DD655A78E8499DE672CF326AE)
Complete name : D:\Snayper.oficer.SMERSH.2017.WEB-DL.(1080p).Getty\Snayper.oficer.SMERSH.e01.2017.WEB-DL.(1080p).Getty.mkv
Format : Matroska
Format version : Version 4 / Version 2
File size : 1.63 GiB
Duration : 43 min 59 s
Overall bit rate : 5 299 kb/s
Movie name : Snayper.oficer.SMERSH.e01.2017.WEB-DL.(1080p).Getty
Encoded date : UTC 2020-04-19 14:07:03
Writing application : mkvmerge v7.8.0 ('River Man') 32bit built on Mar 27 2015 16:18:02
Writing library : libebml v1.3.1 + libmatroska v1.4.2

Video
ID : 1
Format : AVC
Format/Info : Advanced Video Codec
Format profile : High@L4
Format settings : CABAC / 4 Ref Frames
Format settings, CABAC : Yes
Format settings, ReFrames : 4 frames
Codec ID : V_MPEG4/ISO/AVC
Duration : 43 min 59 s
Bit rate : 5 105 kb/s
Width : 1 920 pixels
Height : 1 080 pixels
Display aspect ratio : 16:9
Frame rate mode : Constant
Frame rate : 25.000 FPS
Color space : YUV
Chroma subsampling : 4:2:0
Bit depth : 8 bits
Scan type : Progressive
Bits/(Pixel*Frame) : 0.098
Stream size : 1.57 GiB (96%)
Default : Yes
Forced : No

Audio
ID : 2
Format : AC-3
Format/Info : Audio Coding 3
Codec ID : A_AC3
Duration : 43 min 59 s
Bit rate mode : Constant
Bit rate : 192 kb/s
Channel(s) : 2 channels
Channel positions : Front: L R
Sampling rate : 48.0 kHz
Frame rate : 31.250 FPS (1536 SPF)
Bit depth : 16 bits
Compression mode : Lossy
Stream size : 60.4 MiB (4%)
Service kind : Complete Main
Default : Yes
Forced : No

Внимание! Раздача ведётся путём добавления новых серий; при каждом добавлении создfётся новый торрент. Чтобы начать докачку новой серии, пользователям необходимо сделать следующее: (1) остановить скачивание, (2) удалить старый торрент у себя из клиента (старые серии удалять не надо), (3) скачать новый торрент и запустить его у себя в клиенте вместо старого, при этом указать клиенту путь в старую папку куда и должно происходить скачивание новых серий.

Ваш клиент при этом должен произвести хеширование (проверку) старой папки (если не производит сам - помогите ему сделать это), и будет докачивать только те серии которых у вас ещё нет. Старые серии при этом не удаляются, а продолжают раздаваться!

Eсли вы уже удалили старые серии, то предотвратить повторную закачку старых серий можно, отжав галочку в соответсвующих местах при запуске нового торрента.
pb.wtf



Скачать Снайпер. Офицер СМЕРШ через торрент https://i111.fastpic.ru/big/2020/0419/13/ed73add3ada20e5f0a49e409ef36f813.jpg Скачать фильм Снайпер. Офицер СМЕРШ через торрент бесплантно в хорошем качестве Описание: История непримиримого противостояния двух профессиональных снайперов, старшего лейтенанта особого отдела Егорова и лейтенанта ... 9.9 10 9
Info! Золотая раздача, скачанное не засчитывается.
Торрент: Зарегистрирован [2020-04-19 17:11] · скачан: 286 раз
Статус: √ проверено
Размер: 6.36 GB
Как cкачать? Как скачать Снайпер. Офицер СМЕРШ через торрент | qTorrent

% Раздел Тема Автор DL S | L
Наши сериалы [ 2.7 GB ] Снайпер. Офицер СМЕРШ / Сезон: 1 / Серии: 1-4 из 4 [2020 Военный WEB-DLRip-AVC] bober100 Скачать
1 | 0
Наши сериалы [ 3.47 GB ] Снайпер. Офицер СМЕРШ / Сезон: 1 / Серии: 1-4 из 4 [2020 Военный WEB-DL 720p] bober100 Скачать
2 | 0
Наши сериалы [ 2.34 GB ] Снайпер. Офицер СМЕРШ / Сезон: 1 / Серии: 1-4 из 4 [2020 Военный WEB-DLRip] bober100 Скачать
1 | 0


Последний раз редактировалось: bober100 (2020-04-19 18:04), всего редактировалось 1 раз

28-11-2019 20:33  

Отключить всю рекламу на сайте

19-04-2020 17:58 Снайпер. Офицер СМЕРШ Скачать торрент  

Спасибо!pb.wtf



    Дорогой пользователь! Огромная просьба, поблагодарите релизера, оцените раздачу и оставьте свои комментарий, если Вы скачали Снайпер. Офицер СМЕРШ через торрент бесплатно! Внесите свою лепту в развитие PiratBit!
    Комментировать посты могут только пользователи прошедшие не сложную регистрацию
    Показать сообщения:    

    Снайпер. Офицер СМЕРШ через торрент
    Скачать бесплатно Снайпер. Офицер СМЕРШ
    Снайпер. Офицер СМЕРШ скачать торрент
    Снайпер. Офицер СМЕРШ смотреть онлайн
    Cкачать фильм Снайпер. Офицер СМЕРШ бесплатно
    Снайпер. Офицер СМЕРШ скачать торрент в хорошем качестве
    Снайпер. Офицер СМЕРШ смотреть онлайн бесплатно в хорошем качестве


    Вы не можете начинать темы
    Вы не можете отвечать на сообщения
    Вы не можете редактировать свои сообщения
    Вы не можете удалять свои сообщения
    Вы не можете голосовать в опросах
    Вы не можете прикреплять файлы к сообщениям
    Вы можете скачивать файлы