Ссылка на приватное зеркало нашего сайта всего за 1$. Внимание количество ограничено!!!

2 сезон

iTunes

1 сезон

1

2 сезон

2 сезон

iTunes

1 сезон

RePack

30

Новинка

ВАЖНО

ИГРА 18+

pack

RePack

MK11
pack

Забери бонус

RePack

jed

!!Акция!!

Alien_Rage

RePack

fifa19

RePack

Assassins Creed: Odyssey

RePack

NEED FOR SPEED™ PAYBACK

4 сезон

9 сезон

Бесстыжие 9 сезон

Все сериалы

все сериалы на PB.wtf

RePack

FAR CRY 5
  

Аким (Нуртас Адамбай) [2019, Комедия, WEB-DLRip-AVC] - ExKinoRay pb.wtf

Аким через торрент pb.wtf

Раздают: 4 [ 0 KB/s ]
Размер: 2.16 GB | Добавлен: 7 мес. назад | Торрент скачан:487 раз
Скачать  

19-04-2020 16:47 Аким Скачать торрент  

Аким
Год выпуска: 2019
Страна: Казахстан
Жанр: Комедия
Продолжительность: 01:45:50
Перевод: Не требуется Русский
Субтитры: Нет

Режиссер: Нуртас Адамбай

rating

В ролях: Нуртас Адамбай, Гульназ Жоланова, Жан Байжанбаев, Гульнара Дусматова, Кайрат Адилгерей, Ашим Ахметов, Дархан Дайырбек

Описание: Молодого мажора по имени Азамат, привыкшего к комфортной городской жизни, по стечению обстоятельств, отправляют работать акимом в отдаленный посёлок. Чтобы продвинуться по карьерной лестнице в Нур-Султане, которую ему обещал папа со связями, парню сначала нужно пройти боевое крещение на посту акима в поселке Таза-Булак. Он вынужден согласиться. В итоге молодой аким начинает по-другому смотреть на жизнь сельчан и всеми силами пытается помочь жителям.

Качество: WEB-DLRip-AVC
Формат: MKV
Видео кодек: H.264
Аудио кодек: AC3
Видео: MPEG-4 AVC, 2731 Кбит/с, 1024x552
Аудио#1: AC3, 2 ch, 192 Кбит/с

БЕЗ РЕКЛАМЫ!

Релиз от:
Общее
Уникальный идентификатор : 251513992457592046551181916192913932695 (0xBD37D53C40E89251B091E3BC0A82C197)
Полное имя : D:\Раздача\Akim.2019.WEB-DLRip-AVC.ExKinoRay.mkv
Формат : Matroska
Версия формата : Version 4 / Version 2
Размер файла : 2,16 Гбайт
Продолжительность : 1 ч. 45 м.
Общий поток : 2925 Кбит/сек
Название фильма : Аким.2019.WEB-DLRip-AVC.grab777 & ExKinoRay
Дата кодирования : UTC 2020-04-19 14:36:00
Программа кодирования : mkvmerge v7.3.0 ('Nouages') 64bit built on Oct 22 2014 18:53:34
Библиотека кодирования : libebml v1.3.0 + libmatroska v1.4.1

Видео
Идентификатор : 1
Формат : AVC
Формат/Информация : Advanced Video Codec
Профиль формата : High@L4.1
Настройки формата : CABAC / 12 Ref Frames
Параметр CABAC формата : Да
Параметр RefFrames формата : 12 кадров
Идентификатор кодека : V_MPEG4/ISO/AVC
Продолжительность : 1 ч. 45 м.
Битрейт : 2731 Кбит/сек
Ширина : 1024 пикселя
Высота : 552 пикселя
Соотношение сторон : 1,85:1
Режим частоты кадров : Постоянный
Частота кадров : 25,000 кадров/сек
Цветовое пространство : YUV
Субдискретизация насыщенности : 4:2:0
Битовая глубина : 8 бит
Тип развёртки : Прогрессивная
Бит/(Пиксели*Кадры) : 0.193
Размер потока : 2,02 Гбайт (93%)
Заголовок : Rip by grab777
Библиотека кодирования : x264 core 148 r2665M a01e339
Настройки программы : cabac=1 / ref=12 / deblock=1:-2:-2 / analyse=0x3:0x133 / me=umh / subme=10 / psy=1 / psy_rd=1.00:0.15 / mixed_ref=1 / me_range=32 / chroma_me=1 / trellis=2 / 8x8dct=1 / cqm=0 / deadzone=21,11 / fast_pskip=0 / chroma_qp_offset=-3 / threads=5 / lookahead_threads=1 / sliced_threads=0 / nr=0 / decimate=1 / interlaced=0 / bluray_compat=0 / constrained_intra=0 / bframes=10 / b_pyramid=2 / b_adapt=2 / b_bias=0 / direct=3 / weightb=1 / open_gop=0 / weightp=2 / keyint=250 / keyint_min=25 / scenecut=40 / intra_refresh=0 / rc_lookahead=40 / rc=crf / mbtree=1 / crf=16.0 / qcomp=0.90 / qpmin=1 / qpmax=69 / qpstep=4 / vbv_maxrate=30000 / vbv_bufsize=40000 / crf_max=0.0 / nal_hrd=none / filler=0 / ip_ratio=1.40 / aq=1:0.00
Язык : Russian
Default : Да
Forced : Нет

Аудио
Идентификатор : 2
Формат : AC-3
Формат/Информация : Audio Coding 3
Параметр Endianness формата : Big
Идентификатор кодека : A_AC3
Продолжительность : 1 ч. 45 м.
Вид битрейта : Постоянный
Битрейт : 192 Кбит/сек
Каналы : 2 канала
Расположение каналов : Front: L R
Частота : 48,0 КГц
Частота кадров : 31,250 кадров/сек (1536 SPF)
Битовая глубина : 16 бит
Метод сжатия : С потерями
Размер потока : 145 Мбайт (7%)
Заголовок : iTunes
Язык : Russian
ServiceKind/String : Complete Main
Default : Да
Forced : Нет

pb.wtf



Скачать Аким через торрент http://pic1.kartinco.top/images/12/mkcyq.jpg Скачать фильм Аким через торрент бесплантно в хорошем качестве Описание: Молодого мажора по имени Азамат, привыкшего к комфортной городской жизни, по стечению обстоятельств, отправляют работать акимом в ... 10 10 14
Info! Золотая раздача, скачанное не засчитывается.
Торрент: Зарегистрирован [2020-04-19 16:47] · скачан: 487 раз
Статус: √ проверено
Размер: 2.16 GB
Как cкачать? Как скачать Аким через торрент | qTorrent

% Раздел Тема Автор DL S | L
Фильмы 2019-2020 [DVDrip, WEB-DLRip, HDrip] (DUB, MVO) [ 2.7 GB ] Пушки Акимбо / Guns Akimbo [2019 BDRip-AVC] +MVO [HDRezka Studio] - ExKinoRay Mr. Grab Скачать
1 | 0
Фильмы 2019-2020 [DVDrip, WEB-DLRip, HDrip] (DUB, MVO) [ 2.35 GB ] Малефисента: Владычица тьмы / Maleficent: Mistress of Evil [2019 WEB-DLRip-AVC] - ExKinoRay Enigma2010 Скачать
5 | 0
Фильмы 2017 [DVDrip, WEB-DLRip, HDrip] (DUB, MVO) [ 2.87 GB ] Пираты Карибского моря: Мертвецы не рассказывают сказки / Pirates of the Caribbean: Dead Men Tell No Tales [2017 HDRip-AVC] DUB [] - ExKinoRay Enigma2010 Скачать
1 | 0

28-11-2019 20:33  

Отключить всю рекламу на сайте

07-05-2020 11:39 Аким Скачать торрент  

зачетный фильмец! В реале бы так мажориков депутатов отправляли.глядишь бы и в правду бы о стране думалиpb.wtf



    Дорогой пользователь! Огромная просьба, поблагодарите релизера, оцените раздачу и оставьте свои комментарий, если Вы скачали Аким через торрент бесплатно! Внесите свою лепту в развитие PiratBit!
    Комментировать посты могут только пользователи прошедшие не сложную регистрацию
    Показать сообщения:    

    Аким через торрент
    Скачать бесплатно Аким
    Аким скачать торрент
    Аким смотреть онлайн
    Cкачать фильм Аким бесплатно
    Аким скачать торрент в хорошем качестве
    Аким смотреть онлайн бесплатно в хорошем качестве


    Вы не можете начинать темы
    Вы не можете отвечать на сообщения
    Вы не можете редактировать свои сообщения
    Вы не можете удалять свои сообщения
    Вы не можете голосовать в опросах
    Вы не можете прикреплять файлы к сообщениям
    Вы можете скачивать файлы