Ссылка на приватное зеркало нашего сайта всего за 1$. Внимание количество ограничено!!!

2 сезон

iTunes

1 сезон

1

iTunes

iTunes

iTunes

1 сезон

RePack

30

ИГРА 18+

pack

ВАЖНО

!!Акция!!

Alien_RageХит недели

RePack

MK11
pack

Забери бонус

RePack

jed

!!Акция!!

Alien_Rage

RePack

fifa19

RePack

Assassins Creed: Odyssey

RePack

NEED FOR SPEED™ PAYBACK

4 сезон

9 сезон

Бесстыжие 9 сезон

Все сериалы

все сериалы на PB.wtf

RePack

FAR CRY 5
  

Любовь лечит / Серии: 1-4 из 4 (Мария Маханько) [2020, Мелодрама, WEB-DLRip] pb.wtf

Любовь лечит через торрент pb.wtf

Раздают: 2 [ 0 KB/s ]
Размер: 2.36 GB | Добавлен: 6 мес. назад | Торрент скачан:15 раз
Скачать  

19-04-2020 17:54 Любовь лечит Скачать торрент  

Любовь лечит
Год выпуска: 2020
Страна: Россия
Жанр: Мелодрама
Продолжительность: ~ 00:48:00
Перевод: Не требуется
Субтитры: отсутствуют

Режиссер: Мария Маханько

В ролях: Екатерина Волкова (II), Андрей Заводюк, Роман Полянский, Максим Коновалов, Ирина Брагина, Мария Рассказова, Артём Фадеев

Описание: История счастливой жены и матери двоих детей, Светланы, которая узнает о том, что у нее рак. Света решает ничего не предпринимать, а жить на полную катушку. Но вскоре выясняется, что анализы были перепутаны, и рак не у нее, а у молодой девушки, Анны, которая оказывается любовницей мужа Светланы. Света решает не мстить, а помочь девушке выжить… Тем более, что муж Светланы оказывается негодяем и подлецом, который готов лишить всех денег жену и детей, а также оставить уже ненужную любовницу… В процессе борьбы за жизнь Анны и за справедливость Света встречает свою настоящую любовь…

Качество: WEB-DLRip
Формат: AVI

Видео: XviD, ~ 1600 Кбит/с, 720x400, 25 кадр/с
Аудио: 48.0 kHz, AC3 Dolby Digital, 2/0 (L,R) ch, ~ 192 kbps
скриншот  скриншот  скриншот  скриншот  

General
Complete name : H:\fiiles x\Любовь лечит.2020.WEB-DLRip.Files-x\01. Любовь лечит.2020.WEB-DLRip.Files-x.avi
Format : AVI
Format/Info : Audio Video Interleave
File size : 624 MiB
Duration : 48mn 24s
Overall bit rate : 1 802 Kbps
Writing application : VirtualDubMod 1.5.10.3 | www.virtualdub-fr.org || (build 2550/release)
Writing library : VirtualDubMod build 2550/release

Video
ID : 0
Format : MPEG-4 Visual
Format profile : Advanced Simple@L5
Format settings, BVOP : 1
Format settings, QPel : No
Format settings, GMC : No warppoints
Format settings, Matrix : Custom
Codec ID : XVID
Codec ID/Hint : XviD
Duration : 48mn 24s
Bit rate : 1 600 Kbps
Width : 720 pixels
Height : 400 pixels
Display aspect ratio : 16:9
Frame rate : 25.000 fps
Color space : YUV
Chroma subsampling : 4:2:0
Bit depth : 8 bits
Scan type : Progressive
Compression mode : Lossy
Bits/(Pixel*Frame) : 0.222
Stream size : 554 MiB (89%)
Writing library : XviD 73

Audio
ID : 1
Format : AC-3
Format/Info : Audio Coding 3
Mode extension : CM (complete main)
Codec ID : 2000
Duration : 48mn 24s
Bit rate mode : Constant
Bit rate : 192 Kbps
Channel(s) : 2 channels
Channel positions : Front: L R
Sampling rate : 48.0 KHz
Bit depth : 16 bits
Compression mode : Lossy
Stream size : 66.5 MiB (11%)
Alignment : Split accross interleaves
Interleave, duration : 40 ms (1.00 video frame)
Interleave, preload duration : 500 ms

pb.wtf



Скачать Любовь лечит через торрент https://i111.fastpic.ru/big/2020/0419/f5/bf178b4481296c3e82e523b9b2123af5.jpg Скачать фильм Любовь лечит через торрент бесплантно в хорошем качестве Описание: История счастливой жены и матери двоих детей, Светланы, которая узнает о том, что у нее рак. Света решает ничего не ... 9.3 10 3
Торрент: Зарегистрирован [2020-04-19 17:54] · скачан: 15 раз
Статус: √ проверено
Размер: 2.36 GB
Как cкачать? Как скачать Любовь лечит через торрент | qTorrent

% Раздел Тема Автор DL S | L
Наши сериалы [ 6.78 GB ] Любовь лечит / Серии: 1-4 из 4 [2020 Мело WEB-DL 1080p] bober100 Скачать
1 | 0
Наши сериалы [ 4.81 GB ] Любовь лечит / Серии: 1-4 из 4 [2020 Мело WEB-DL 720p] bober100 Скачать
1 | 0
Наши сериалы [ 2.35 GB ] Любовь лечит / Серии: 1-4 из 4 [2020 Мело WEB-DLRip-AVC] bober100 Скачать
1 | 0

28-11-2019 20:33  

Отключить всю рекламу на сайте

    Дорогой пользователь! Огромная просьба, поблагодарите релизера, оцените раздачу и оставьте свои комментарий, если Вы скачали Любовь лечит через торрент бесплатно! Внесите свою лепту в развитие PiratBit!
    Комментировать посты могут только пользователи прошедшие не сложную регистрацию
    Показать сообщения:    

    Любовь лечит через торрент
    Скачать бесплатно Любовь лечит
    Любовь лечит скачать торрент
    Любовь лечит смотреть онлайн
    Cкачать фильм Любовь лечит бесплатно
    Любовь лечит скачать торрент в хорошем качестве
    Любовь лечит смотреть онлайн бесплатно в хорошем качестве


    Вы не можете начинать темы
    Вы не можете отвечать на сообщения
    Вы не можете редактировать свои сообщения
    Вы не можете удалять свои сообщения
    Вы не можете голосовать в опросах
    Вы не можете прикреплять файлы к сообщениям
    Вы можете скачивать файлы