2 сезон

iTunes

MVO

1

2 сезон

iTunes

iTunes

1 сезон

RePack

30

Ultimate

ВАЖНО

ИГРА 18+

pack

RePack

MK11
pack

Легкие деньги

RePack

jed

RePack

fifa19

RePack

RDR2

RePack

NEED FOR SPEED™ PAYBACK

4 сезон

9 сезон

Бесстыжие 9 сезон

Все сериалы

все сериалы на PB.wtf

RePack

FAR CRY 5

Anonymous, добрый день, мы не успеваем собрать деньги на оплату серверов за декабрь и январь, помогите нам пожалуйста в это трудное время. В качестве благодарности мы отключим Вам всю рекламу на сайте (укажите свой ник в строку Ваше имя)!

×
  
Magnet ссылка

Бамблби / Bumblebee (Трэвис Найт) [2018 г., фантастика, боевик, приключения, BDRip 720p / 60 FPS, Дубляж] от R.G. HD-Films pb.wtf

Бамблби через торрент pb.wtf

Раздают: 1 [ 0 KB/s ]
Размер: 4.52 GB | Добавлен: 8 мес. назад | Торрент скачан:130 раз
Скачать  

20-04-2020 12:11 Бамблби Скачать торрент  

Бамблби / Bumblebee
Год выпуска: : 2018
Страна: : США, Китай
Жанр: : фантастика, боевик, приключения
Продолжительность: 01:53:53
Перевод: Дубляж
Субтитры: Russian, English

Режиссер: Трэвис Найт

Бюджет: $135 000 000
Премьера в мире: 3 декабря 2018

rating

В ролях: Дилан О’Брайен, Хейли Стайнфелд, Хорхе Лендеборг мл., Джон Сина, Джейсон Йен Дракер, Памела Адлон, Стивен Шнайдер, Рикардо Хойос, Джон Ортис, Глинн Тёрмен


Сюжет фильма: 1987 год. Скрываясь от преследования, Бамблби прибывает на Землю, где тут же сталкивается с военными. В результате стычки с землянами и десептиконом, Бамблби лишается голосового модуля, повреждает память и перед отключкой сканирует стоящий неподалёку Фольксваген Жук. Через некоторое время девушка по имени Чарли находит его на автомобильной свалке в калифорнийском городке и получает в качестве подарка на 18-летие. Закатив машину в свой гараж, Чарли с удивлением обнаруживает, что ей достался не простой жёлтый Фольксваген Жук.


Качество видео: BDRip 720p / 60 FPS
Формат: MKV
Видео кодек: H.264
Аудио кодек: AC3
Видео : x264, 1280 x 720 ( 16:9 ), 5305 kbps, 60,000 fps, ( 0.096 bpp)
Аудио : Русский, AC-3, 48.0 KHz, 6 ch, 384 Kbps
Релиз от:

скриншот   скриншот   скриншот   скриншот   скриншот   скриншот  Автор рипа: slaventi-69
x264 [info]: frame I:2507 Avg QP:16.09 size:101161
x264 [info]: frame P:97841 Avg QP:17.08 size: 23481
x264 [info]: frame B:309253 Avg QP:19.33 size: 6388
x264 [info]: consecutive B-frames: 2.5% 3.1% 8.7% 14.3% 64.0% 7.6%


Общее
Уникальный идентификатор : 244634817639302283046269890823211779431 (0xB80AF3BB10744839FD92F9408A850567)
Полное имя : F:\Bumblebee.(2018).BDRip.720p.(60 Fps).mkv
Формат : Matroska
Версия формата : Version 4
Размер файла : 4,52 Гбайт
Продолжительность : 1 ч. 53 м.
Общий поток : 5689 Кбит/сек
Название фильма : Бамблби / Bumblebee (2018) BDRip 720p (60 Fps)
Дата кодирования : UTC 2020-04-18 14:56:39
Программа кодирования : mkvmerge v42.0.0 ('Overtime') 64-bit
Библиотека кодирования : libebml v1.3.10 + libmatroska v1.5.2

Видео
Идентификатор : 1
Формат : AVC
Формат/Информация : Advanced Video Codec
Профиль формата : High@L4.1
Настройки формата : CABAC / 9 Ref Frames
Параметр CABAC формата : Да
Параметр RefFrames формата : 9 кадров
Идентификатор кодека : V_MPEG4/ISO/AVC
Продолжительность : 1 ч. 53 м.
Битрейт : 5305 Кбит/сек
Ширина : 1280 пикселей
Высота : 720 пикселей
Соотношение сторон : 16:9
Режим частоты кадров : Постоянный
Частота кадров : 60,000 кадров/сек
Цветовое пространство : YUV
Субдискретизация насыщенности : 4:2:0
Битовая глубина : 8 бит
Тип развёртки : Прогрессивная
Бит/(Пиксели*Кадры) : 0.096
Размер потока : 4,22 Гбайт (93%)
Заголовок : slaventi-69 ( R.G. HD-Films | 60 fps )
Библиотека кодирования : x264 core 130 r2273 b3065e6
Настройки программы : cabac=1 / ref=9 / deblock=1:-1:-1 / analyse=0x3:0x133 / me=umh / subme=9 / psy=1 / psy_rd=1.00:0.00 / mixed_ref=1 / me_range=26 / chroma_me=1 / trellis=2 / 8x8dct=1 / cqm=0 / deadzone=21,11 / fast_pskip=0 / chroma_qp_offset=-2 / threads=6 / lookahead_threads=1 / sliced_threads=0 / nr=0 / decimate=1 / interlaced=0 / bluray_compat=0 / constrained_intra=0 / bframes=5 / b_pyramid=2 / b_adapt=2 / b_bias=0 / direct=3 / weightb=1 / open_gop=0 / weightp=2 / keyint=250 / keyint_min=23 / scenecut=40 / intra_refresh=0 / rc=crf / mbtree=0 / crf=17.5 / qcomp=0.60 / qpmin=0 / qpmax=69 / qpstep=4 / ip_ratio=1.40 / pb_ratio=1.30 / aq=1:1.00
Язык : English
Default : Да
Forced : Нет

Аудио
Идентификатор : 2
Формат : AC-3
Формат/Информация : Audio Coding 3
Коммерческое название : Dolby Digital
Идентификатор кодека : A_AC3
Продолжительность : 1 ч. 53 м.
Вид битрейта : Постоянный
Битрейт : 384 Кбит/сек
Каналы : 6 каналов
Channel layout : L R C LFE Ls Rs
Частота : 48,0 КГц
Частота кадров : 31,250 кадров/сек (1536 SPF)
Битовая глубина : 16 бит
Метод сжатия : С потерями
Размер потока : 313 Мбайт (7%)
Заголовок : Dub | DD 5.1 - Blu-ray 4K
Язык : Russian
ServiceKind/String : Complete Main
Default : Да
Forced : Нет

Текст #1
Идентификатор : 3
Формат : UTF-8
Идентификатор кодека : S_TEXT/UTF8
Идентификатор кодека/Информация : UTF-8 Plain Text
Продолжительность : 1 ч. 45 м.
Битрейт : 1 бит/сек
ElementCount : 29
Размер потока : 1,18 Кбайт (0%)
Заголовок : Forced
Язык : Russian
Default : Да
Forced : Да

Текст #2
Идентификатор : 4
Формат : UTF-8
Идентификатор кодека : S_TEXT/UTF8
Идентификатор кодека/Информация : UTF-8 Plain Text
Продолжительность : 1 ч. 53 м.
Битрейт : 61 бит/сек
ElementCount : 1164
Размер потока : 51,0 Кбайт (0%)
Заголовок : Blu-ray
Язык : Russian
Default : Нет
Forced : Нет

Текст #3
Идентификатор : 5
Формат : UTF-8
Идентификатор кодека : S_TEXT/UTF8
Идентификатор кодека/Информация : UTF-8 Plain Text
Продолжительность : 1 ч. 48 м.
Битрейт : 44 бит/сек
ElementCount : 1222
Размер потока : 35,4 Кбайт (0%)
Заголовок : Full
Язык : English
Default : Нет
Forced : Нет

Текст #4
Идентификатор : 6
Формат : UTF-8
Идентификатор кодека : S_TEXT/UTF8
Идентификатор кодека/Информация : UTF-8 Plain Text
Продолжительность : 1 ч. 48 м.
Битрейт : 56 бит/сек
ElementCount : 1626
Размер потока : 44,8 Кбайт (0%)
Заголовок : SDH
Язык : English
Default : Нет
Forced : Нет

Меню
00:00:00.000 : :Глава 1
00:03:30.710 : :Глава 2
00:12:16.485 : :Глава 3
00:16:56.724 : :Глава 4
00:21:03.053 : :Глава 5
00:26:42.601 : :Глава 6
00:32:33.326 : :Глава 7
00:39:44.090 : :Глава 8
00:45:18.590 : :Глава 9
00:50:43.623 : :Глава 10
00:54:16.253 : :Глава 11
01:01:10.708 : :Глава 12
01:06:26.899 : :Глава 13
01:11:39.545 : :Глава 14
01:16:08.105 : :Глава 15
01:21:37.142 : :Глава 16
01:25:08.603 : :Глава 17
01:30:15.410 : :Глава 18
01:36:46.801 : :Глава 19
01:43:52.559 : :Глава 20
01:49:43.201 : :Глава 21
01:53:53.284 : :Глава 22

Просьба к переливающим на другие сайты, в оформлении указывайте пожалуйста авторство группы R.G. HD-Films pb.wtf



Скачать Бамблби через торрент https://i109.fastpic.ru/big/2019/0406/6d/7c55b4b9b9d1610e133c22a423c0a06d.jpg Скачать фильм Бамблби через торрент бесплантно в хорошем качестве В ролях: Дилан О’Брайен, Хейли Стайнфелд, Хорхе Лендеборг мл., Джон Сина, Джейсон Йен Дракер, Памела Адлон, Стивен Шнайдер, Рикардо Хойос, ... 9.8 10 10
Торрент: Зарегистрирован [2020-04-20 12:11] · скачан: 130 раз
Статус: √ проверено
Размер: 4.52 GB
Как cкачать? Как скачать Бамблби через торрент | UTorrent

28-11-2019 20:33  

Отключить всю рекламу на сайте

20-04-2020 17:58 Бамблби Скачать торрент  

качество отстойpb.wtf



16-11-2020 17:35 Бамблби Скачать торрент  

Дайте скорости, пожалуйста!pb.wtf



    Дорогой пользователь! Огромная просьба, поблагодарите релизера, оцените раздачу и оставьте свои комментарий, если Вы скачали Бамблби через торрент бесплатно! Внесите свою лепту в развитие PiratBit!
    Комментировать посты могут только пользователи прошедшие не сложную регистрацию
    Показать сообщения:    

    Бамблби через торрент
    Скачать бесплатно Бамблби
    Бамблби скачать торрент
    Бамблби смотреть онлайн
    Cкачать фильм Бамблби бесплатно
    Бамблби скачать торрент в хорошем качестве
    Бамблби смотреть онлайн бесплатно в хорошем качестве


    Вы не можете начинать темы
    Вы не можете отвечать на сообщения
    Вы не можете редактировать свои сообщения
    Вы не можете удалять свои сообщения
    Вы не можете голосовать в опросах
    Вы не можете прикреплять файлы к сообщениям
    Вы можете скачивать файлы