Ссылка на приватное зеркало нашего сайта всего за 1$. Внимание количество ограничено!!!

2 сезон

iTunes

1 сезон

1

iTunes

iTunes

iTunes

1 сезон

RePack

30

ИГРА 18+

pack

ВАЖНО

!!Акция!!

Alien_RageХит недели

RePack

MK11
pack

Забери бонус

RePack

jed

!!Акция!!

Alien_Rage

RePack

fifa19

RePack

Assassins Creed: Odyssey

RePack

NEED FOR SPEED™ PAYBACK

4 сезон

9 сезон

Бесстыжие 9 сезон

Все сериалы

все сериалы на PB.wtf

RePack

FAR CRY 5
  

Снайпер. Офицер СМЕРШ / Сезон: 1 / Серии: 1-4 из 4 (Алексей Мурадов) [2020, Военный, мелодрама, WEB-DLRip-AVC] pb.wtf

Снайпер. Офицер СМЕРШ через торрент pb.wtf

Раздают: 1 [ 0 KB/s ]
Размер: 2.7 GB | Добавлен: 5 мес. назад | Торрент скачан:151 раз
Скачать  

20-04-2020 15:21 Снайпер. Офицер СМЕРШ Скачать торрент  

Снайпер. Офицер СМЕРШ Год выпуска: 2020
Страна: Россия, Беларусь
Жанр: Военный, мелодрама
Продолжительность: ~ 00:45:00
Субтитры: отсутствуют

Режиссер: Алексей Мурадов



В ролях: Никита Ефремов, Мария Андреева, Павел Делонг, Константин Милованов, Жан-Марк Биркхольц, Дмитрий Арбенин, Юрий Цурило

Описание: История непримиримого противостояния двух профессиональных снайперов, старшего лейтенанта особого отдела Егорова и лейтенанта Лотера Фон Дибитца, начавшаяся в 1943 году в осадном Сталинграде и продолжившаяся в 1944 году в лесах Белоруссии.

Качество: WEB-DLRip-AVC
Формат: MKV

Видео: 1024x576, (16:9), 25 fps, AVC MPEG-4 (x264), High@L4.1 ~ 2000 kbps , 0.136 bit/pixel
Аудио: 48.0 kHz, AC3 Dolby Digital, 2/0 (L,R) ch, ~ 192 kbps
скриншот  скриншот  скриншот  скриншот  скриншот  

Общее
Уникальный идентификатор : 205407777979447110885997101322793829849 (0x9A88195AD2235ED684A524FFB2A6C5D9)
Полное имя : C:\Снайпер. Офицер СМЕРШ.(2017).WEB-DLRip.(AVC).Files-x\01.Snayper.oficer.SMERSH.(2017).WEB-DLRip.(AVC).by.Серый1779.Files-x.mkv
Формат : Matroska
Версия формата : Version 2
Размер файла : 690 Мбайт
Продолжительность : 43 м. 59 с.
Общий поток : 2 193 Кбит/сек
Дата кодирования : UTC 2020-04-20 06:45:19
Программа кодирования : mkvmerge v7.8.0 ('River Man') 32bit built on Apr 3 2015 12:11:22
Библиотека кодирования : libebml v1.3.1 + libmatroska v1.4.2

Видео
Идентификатор : 1
Формат : AVC
Формат/Информация : Advanced Video Codec
Профиль формата : High@L4.1
Настройки формата : CABAC / 9 Ref Frames
Параметр CABAC формата : Да
Параметр RefFrames формата : 9 кадров
Идентификатор кодека : V_MPEG4/ISO/AVC
Продолжительность : 43 м. 59 с.
Битрейт : 2 000 Кбит/сек
Ширина : 1 024 пикселя
Высота : 576 пикселей
Соотношение сторон : 16:9
Режим частоты кадров : Постоянный
Частота кадров : 25,000 кадров/сек
Цветовое пространство : YUV
Субдискретизация насыщенности : 4:2:0
Битовая глубина : 8 бит
Тип развёртки : Прогрессивная
Бит/(Пиксели*Кадры) : 0.136
Размер потока : 616 Мбайт (89%)
Библиотека кодирования : x264 core 146 r2538 121396c
Настройки программы : cabac=1 / ref=9 / deblock=1:-2:-1 / analyse=0x3:0x133 / me=umh / subme=9 / psy=1 / psy_rd=1.00:0.15 / mixed_ref=1 / me_range=32 / chroma_me=1 / trellis=2 / 8x8dct=1 / cqm=0 / deadzone=21,11 / fast_pskip=0 / chroma_qp_offset=-3 / threads=18 / lookahead_threads=3 / sliced_threads=0 / nr=0 / decimate=1 / interlaced=0 / bluray_compat=0 / constrained_intra=0 / bframes=9 / b_pyramid=2 / b_adapt=2 / b_bias=0 / direct=1 / weightb=1 / open_gop=0 / weightp=2 / keyint=250 / keyint_min=25 / scenecut=40 / intra_refresh=0 / rc=2pass / mbtree=0 / bitrate=2000 / ratetol=1.0 / qcomp=0.60 / qpmin=0 / qpmax=69 / qpstep=4 / cplxblur=20.0 / qblur=0.5 / ip_ratio=1.40 / pb_ratio=1.30 / aq=2:1.00
Default : Да
Forced : Нет
Цветовой диапазон : Limited
Основные цвета : BT.709
Характеристики трансфера : BT.709
Коэффициенты матрицы : BT.709
Duration_Source : General_Duration

Аудио
Идентификатор : 2
Формат : AC-3
Формат/Информация : Audio Coding 3
Коммерческое название : Dolby Digital
Идентификатор кодека : A_AC3
Продолжительность : 43 м. 59 с.
Вид битрейта : Постоянный
Битрейт : 192 Кбит/сек
Каналы : 2 канала
Channel layout : L R
Частота : 48,0 КГц
Частота кадров : 31,250 кадров/сек (1536 SPF)
Метод сжатия : С потерями
Размер потока : 60,4 Мбайт (9%)
Service kind : Complete Main
Default : Да
Forced : Нет
Duration_Source : General_Duration

pb.wtf



Скачать Снайпер. Офицер СМЕРШ через торрент https://i111.fastpic.ru/big/2020/0419/13/ed73add3ada20e5f0a49e409ef36f813.jpg Скачать фильм Снайпер. Офицер СМЕРШ через торрент бесплантно в хорошем качестве Описание: История непримиримого противостояния двух профессиональных снайперов, старшего лейтенанта особого отдела Егорова и лейтенанта ... 10 10 5
Торрент: Зарегистрирован [2020-04-20 15:21] · скачан: 151 раз
Статус: √ проверено
Размер: 2.7 GB
Как cкачать? Как скачать Снайпер. Офицер СМЕРШ через торрент | qTorrent

% Раздел Тема Автор DL S | L
Наши сериалы [ 6.36 GB ] Снайпер. Офицер СМЕРШ / Сезон: 1 / Серии: 1-4 из 4 [2020 Военный WEB-DL 1080p] bober100 Скачать
2 | 0
Наши сериалы [ 3.47 GB ] Снайпер. Офицер СМЕРШ / Сезон: 1 / Серии: 1-4 из 4 [2020 Военный WEB-DL 720p] bober100 Скачать
2 | 0
Наши сериалы [ 2.34 GB ] Снайпер. Офицер СМЕРШ / Сезон: 1 / Серии: 1-4 из 4 [2020 Военный WEB-DLRip] bober100 Скачать
1 | 0

28-11-2019 20:33  

Отключить всю рекламу на сайте

    Дорогой пользователь! Огромная просьба, поблагодарите релизера, оцените раздачу и оставьте свои комментарий, если Вы скачали Снайпер. Офицер СМЕРШ через торрент бесплатно! Внесите свою лепту в развитие PiratBit!
    Комментировать посты могут только пользователи прошедшие не сложную регистрацию
    Показать сообщения:    

    Снайпер. Офицер СМЕРШ через торрент
    Скачать бесплатно Снайпер. Офицер СМЕРШ
    Снайпер. Офицер СМЕРШ скачать торрент
    Снайпер. Офицер СМЕРШ смотреть онлайн
    Cкачать фильм Снайпер. Офицер СМЕРШ бесплатно
    Снайпер. Офицер СМЕРШ скачать торрент в хорошем качестве
    Снайпер. Офицер СМЕРШ смотреть онлайн бесплатно в хорошем качестве


    Вы не можете начинать темы
    Вы не можете отвечать на сообщения
    Вы не можете редактировать свои сообщения
    Вы не можете удалять свои сообщения
    Вы не можете голосовать в опросах
    Вы не можете прикреплять файлы к сообщениям
    Вы можете скачивать файлы