Ссылка на приватное зеркало нашего сайта всего за 1$. Внимание количество ограничено!!!

2 сезон

iTunes

1 сезон

1

2 сезон

2 сезон

iTunes

1 сезон

RePack

30

Новинка

ВАЖНО

ИГРА 18+

pack

RePack

MK11
pack

Забери бонус

RePack

jed

!!Акция!!

Alien_Rage

RePack

fifa19

RePack

Assassins Creed: Odyssey

RePack

NEED FOR SPEED™ PAYBACK

4 сезон

9 сезон

Бесстыжие 9 сезон

Все сериалы

все сериалы на PB.wtf

RePack

FAR CRY 5
  

Нотр-Дам / Notre Dame (Валери Донзелли) [2019, Комедия, WEB-DL 1080p] DUB [iTunes] pb.wtf

Нотр-Дам через торрент pb.wtf

Размер: 3.53 GB | Добавлен: 7 мес. назад | Торрент скачан:76 раз
Скачать  

20-04-2020 20:42 Нотр-Дам Скачать торрент  

Нотр-Дам | Notre Dame
Год выпуска: 2019
Страна: Франция, Бельгия
Студия: Rectangle Productions, France 2 Cinéma, Scope Pictures
Жанр: Комедия
Продолжительность: 01:29:40
Перевод: Дублированный | iTunes
Субтитры: отсутствуют

Режиссер: Валери Донзелли

rating

В ролях: Валери Донзелли, Пьер Деладоншам, Томас Шимека, Були Ланнерс, Виржини Ледуайен, Изабель Канделье, Филипп Катрин, Клод Перрон, Самир Гесми, Полин Серийе

Описание: Суматошный мир парижанки Мод почти полностью состоит из неудобных вопросов, прихотей бывшего мужа и придирок истеричного начальника. Несмотря на это, Мод успевает заботиться о двух детях и заниматься архитектурой - и случайно выигрывает конкурс на реставрацию площади великого собора Нотр-Дам. Эта забавная ошибка позволяет Мод не только заново построить свою карьеру, но и начать романтическое приключение в лучшем месте для любви - Париже.

Качество: WEB-DL 1080p
Формат: MKV

Видео: MPEG-4 AVC, 1920x1038, 5246 Kbit/s, 23.976 fps
Аудио: 48 kHz, AC3, 5.1, 384 Kbps | iTunes | RUS |
скриншот  скриншот  скриншот  скриншот  скриншот  

General
Unique ID : 238746059374561620016501214769241035354 (0xB39CD1884237656BE4EF6158778A925A)
Complete name : E:Video111Notre.Dame.2019.WEB-DL.1080p.seleZen.mkv
Format : Matroska
Format version : Version 4
File size : 3.53 GiB
Duration : 1 h 29 min
Overall bit rate : 5 632 kb/s
Movie name : Notre Dame 2019 from селезень
Encoded date : UTC 2020-04-20 20:33:26
Writing application : mkvmerge v40.0.0 ('Old Town Road + Pony') 64-bit
Writing library : libebml v1.3.9 + libmatroska v1.5.2

Video
ID : 1
Format : AVC
Format/Info : Advanced Video Codec
Format profile : High@L4
Format settings : CABAC / 4 Ref Frames
Format settings, CABAC : Yes
Format settings, Reference : 4 frames
Codec ID : V_MPEG4/ISO/AVC
Duration : 1 h 29 min
Bit rate : 5 246 kb/s
Width : 1 920 pixels
Height : 1 038 pixels
Display aspect ratio : 1.85:1
Frame rate mode : Constant
Frame rate : 24.000 FPS
Color space : YUV
Chroma subsampling : 4:2:0
Bit depth : 8 bits
Scan type : Progressive
Bits/(Pixel*Frame) : 0.110
Stream size : 3.29 GiB (93%)
Language : English
Default : Yes
Forced : No
Color range : Limited
Color primaries : BT.709
Transfer characteristics : BT.709
Matrix coefficients : BT.709

Audio
ID : 2
Format : AC-3
Format/Info : Audio Coding 3
Commercial name : Dolby Digital
Codec ID : A_AC3
Duration : 1 h 29 min
Bit rate mode : Constant
Bit rate : 384 kb/s
Channel(s) : 6 channels
Channel layout : L R C LFE Ls Rs
Sampling rate : 48.0 kHz
Frame rate : 31.250 FPS (1536 SPF)
Compression mode : Lossy
Stream size : 247 MiB (7%)
Title : iTunes
Language : Russian
Service kind : Complete Main
Default : Yes
Forced : Yes

Menu
00:00:00.000 : en:Глава 1
00:08:01.916 : en:Глава 2
00:16:04.791 : en:Глава 3
00:24:11.124 : en:Глава 4
00:32:33.124 : en:Глава 5
00:41:07.915 : en:Глава 6
00:49:58.456 : en:Глава 7
00:58:42.539 : en:Глава 8
01:07:11.664 : en:Глава 9
01:15:36.455 : en:Глава 10
01:23:19.080 : en:Глава 11

pb.wtf



Скачать Нотр-Дам через торрент https://i111.fastpic.ru/big/2020/0420/df/51465d285c1584cdc861d008f3b648df.jpg Скачать фильм Нотр-Дам через торрент бесплантно в хорошем качестве Описание: Суматошный мир парижанки Мод почти полностью состоит из неудобных вопросов, прихотей бывшего мужа и придирок истеричного ... 10 10 4
Торрент: Зарегистрирован [2020-04-20 20:42] · скачан: 76 раз
Статус: √ проверено
Размер: 3.53 GB
Как cкачать? Как скачать Нотр-Дам через торрент | qTorrent

% Раздел Тема Автор DL S | L
Фильмы 2019-2020 [DVDrip, WEB-DLRip, HDrip] (DUB, MVO) [ 1.42 GB ] Нотр-Дам / Notre Dame [2019 BDRip] - Twi7ter Скачать
12 | 1
Фильмы [HD 720p, 1080p] (Хороший звук DUB, MVO) [ 10.98 GB ] Нотр-Дам / Notre Dame [2019 BDRip 1080p] bober100 Скачать
1 | 0
Фильмы (Blu-ray, BD-Remux, HDDVD) [ 25.36 GB ] Нотр-Дам / Notre Dame [2019 BD Remux 1080p] bober100 Скачать
1 | 0
Фильмы 2019-2020 [DVDrip, WEB-DLRip, HDrip] (DUB, MVO) [ 1.7 GB ] Нотр-Дам / Notre Dame [2019 BDRip-AVC] от MediaBit Lithuania Скачать
1 | 0
Фильмы (WEB-DL 720p, 1080p) [ 2.81 GB ] Нотр-Дам / Notre Dame [2019 WEB-DL 720p] bober100 Скачать
3 | 0
Фильмы 2019-2020 [DVDrip, WEB-DLRip, HDrip] (DUB, MVO) [ 1.46 GB ] Нотр-Дам / Notre Dame [2019 BDRip] bober100 Скачать
1 | 0
Иностранные мультфильмы [ 1.46 GB ] Горбун из Нотр Дама / The Hunchback of Notre Dame [1996 мультфильм мюзикл BDRip MVO лицензия] byblackmexx Скачать
1 | 0

28-11-2019 20:33  

Отключить всю рекламу на сайте

    Дорогой пользователь! Огромная просьба, поблагодарите релизера, оцените раздачу и оставьте свои комментарий, если Вы скачали Нотр-Дам через торрент бесплатно! Внесите свою лепту в развитие PiratBit!
    Комментировать посты могут только пользователи прошедшие не сложную регистрацию
    Показать сообщения:    

    Нотр-Дам через торрент
    Скачать бесплатно Нотр-Дам
    Нотр-Дам скачать торрент
    Нотр-Дам смотреть онлайн
    Cкачать фильм Нотр-Дам бесплатно
    Нотр-Дам скачать торрент в хорошем качестве
    Нотр-Дам смотреть онлайн бесплатно в хорошем качестве


    Вы не можете начинать темы
    Вы не можете отвечать на сообщения
    Вы не можете редактировать свои сообщения
    Вы не можете удалять свои сообщения
    Вы не можете голосовать в опросах
    Вы не можете прикреплять файлы к сообщениям
    Вы можете скачивать файлы