Ссылка на приватное зеркало нашего сайта всего за 1$. Внимание количество ограничено!!!

2 сезон

iTunes

1 сезон

1

iTunes

iTunes

iTunes

1 сезон

RePack

30

ИГРА 18+

pack

ВАЖНО

!!Акция!!

Alien_RageХит недели

RePack

MK11
pack

Забери бонус

RePack

jed

!!Акция!!

Alien_Rage

RePack

fifa19

RePack

Assassins Creed: Odyssey

RePack

NEED FOR SPEED™ PAYBACK

4 сезон

9 сезон

Бесстыжие 9 сезон

Все сериалы

все сериалы на PB.wtf

RePack

FAR CRY 5
  

Охота на певицу / Сезон: 1 / Серии: 1-16 из 16 (Александр Касаткин) [2020, Детектив, HDTVRip] pb.wtf

Охота на певицу через торрент pb.wtf

Размер: 8.97 GB | Добавлен: 5 мес. 27 д. назад | Торрент скачан:119 раз
Скачать  

21-04-2020 02:14 Охота на певицу Скачать торрент  

Охота на певицу
Год выпуска: 2020
Страна: Россия
Жанр: Детектив
Продолжительность: ~ 00:45:00
Перевод: Не требуется
Субтитры: отсутствуют

Режиссер: Александр Касаткин



В ролях: Александр Устюгов, Артём Быстров, Алексей Барабаш, Кирилл Назаров, Анна Воркуева, Владимир Литвинов, Кирилл Полухин, Пётр Терещенко, Елена Калинина, Анна Христич (II), Пётр Логачёв, Константин Фисенко, Анна Карелина, Алиса Олейник, Лора Коробских

Описание: Конец 70-х, СССР. Подполковник милиции Гордин (Александр Устюгов) и капитан Колесников (Кирилл Назаров) расследуют неудавшееся покушение на жизнь главной звезды советской эстрады. Гордин уверен, что за преступлением стоит его «старый знакомый» – безжалостный наёмный убийца, которому он дал прозвище Хамелеон (Артём Быстров). В это время в Москве и Московской области происходит ещё несколько убийств, которые на первый взгляд не связаны между собой, но во рту каждой жертвы убийца оставляет «чёрную метку». Гордин и Колесников пытаются разгадать ребус – кто и зачем «заказал» Хамелеону убийство эстрадной певицы, как все жертвы связаны между собой и какие отношения связывали их с артисткой? Ответы на эти вопросы пока знает только Хамелеон, которого в преступной банде знают под прозвищем Немчик.

Качество: HDTVRip
Формат: AVI

Видео: 720x400 (1.80:1), 25 fps, XviD build 73 ~1600 kbps avg, 0.22 bit/pixel
Аудио: 48.0 kHz, AC3 Dolby Digital, 2/0 (L,R) ch, ~ 192 kbps
скриншот  скриншот  скриншот  скриншот  

General
Complete name : H:\fiiles x\Охота на певицу.2020.HDTVRip.Files-x\02. Охота на певицу.2020.HDTVRip.Files-x.avi
Format : AVI
Format/Info : Audio Video Interleave
File size : 577 MiB
Duration : 44mn 45s
Overall bit rate : 1 802 Kbps
Writing application : VirtualDubMod 1.5.10.3 | www.virtualdub-fr.org || (build 2550/release)
Writing library : VirtualDubMod build 2550/release

Video
ID : 0
Format : MPEG-4 Visual
Format profile : Advanced Simple@L5
Format settings, BVOP : 1
Format settings, QPel : No
Format settings, GMC : No warppoints
Format settings, Matrix : Custom
Codec ID : XVID
Codec ID/Hint : XviD
Duration : 44mn 45s
Bit rate : 1 600 Kbps
Width : 720 pixels
Height : 400 pixels
Display aspect ratio : 16:9
Frame rate : 25.000 fps
Color space : YUV
Chroma subsampling : 4:2:0
Bit depth : 8 bits
Scan type : Progressive
Compression mode : Lossy
Bits/(Pixel*Frame) : 0.222
Stream size : 512 MiB (89%)
Writing library : XviD 73

Audio
ID : 1
Format : AC-3
Format/Info : Audio Coding 3
Mode extension : CM (complete main)
Codec ID : 2000
Duration : 44mn 45s
Bit rate mode : Constant
Bit rate : 192 Kbps
Channel(s) : 2 channels
Channel positions : Front: L R
Sampling rate : 48.0 KHz
Bit depth : 16 bits
Compression mode : Lossy
Stream size : 61.5 MiB (11%)
Alignment : Split accross interleaves
Interleave, duration : 40 ms (1.00 video frame)
Interleave, preload duration : 500 ms

Когда раздача ведётся путём добавления новых серий, при каждом добавлении создётся новый торрент. Чтобы начать докачку новой серии, пользователям необходимо сделать следующее:
(1) остановить скачивание,
(2) удалить старый торрент у себя из клиента (старые серии удалять не надо),
(3) скачать новый торрент и запустить его у себя в клиенте вместо старого, при этом указать клиенту путь в старую папку, куда и должно происходить скачивание новых серий.
Ваш клиент при этом должен произвести хеширование (проверку) старой папки (если не производит сам - помогите ему сделать это), и будет докачивать только те серии, которых у вас ещё нет.Старые серии при этом не удаляются, а продолжают раздаваться!
Eсли вы уже удалили старые серии, то предотвратить повторную закачку старых серий можно, отжав галочку в соответсвующих местах при запуске нового торрента. По возможности, желательно не удалять старые серии как можно дольше, чтобы релизёр не столько продолжал раздавать старые серии, а смог сконцентрироваться на новых.
pb.wtf



Скачать Охота на певицу через торрент https://img12.lostpic.net/2020/04/20/fb5ae983558d4372d3d375b97c36cd9b.th.jpg Скачать фильм Охота на певицу через торрент бесплантно в хорошем качестве Описание: Конец 70-х, СССР. Подполковник милиции Гордин (Александр Устюгов) и капитан Колесников (Кирилл Назаров) расследуют неудавшееся ... 9.3 10 7
Торрент: Зарегистрирован [2020-05-01 10:10] · скачан: 119 раз
Статус: √ проверено
Размер: 8.97 GB
Как cкачать? Как скачать Охота на певицу через торрент | qTorrent

% Раздел Тема Автор DL S | L
Наши сериалы [ 9.92 GB ] Охота на певицу / Сезон: 1 / Серии: 1-16 из 16 [2020 SATRip] bober100 Скачать
1 | 0
Наши сериалы [ 18.39 GB ] Охота на певицу / Сезон: 1 / Серии: 1-16 из 16 [2020 HDTVRip 720p] bober100 Скачать
2 | 0
Наши сериалы [ 10.92 GB ] Охота на певицу / Сезон: 1 / Серии: 1-16 из 16 [2020 HDTVRip-AVC] bober100 Скачать
1 | 0
Наши сериалы [ 24.38 GB ] Охота на певицу / Сезон: 1 / Серии: 1-16 из 16 [2020 HDTV 1080i] bober100 Скачать
2 | 0

28-11-2019 20:33  

Отключить всю рекламу на сайте

    Дорогой пользователь! Огромная просьба, поблагодарите релизера, оцените раздачу и оставьте свои комментарий, если Вы скачали Охота на певицу через торрент бесплатно! Внесите свою лепту в развитие PiratBit!
    Комментировать посты могут только пользователи прошедшие не сложную регистрацию
    Показать сообщения:    

    Охота на певицу через торрент
    Скачать бесплатно Охота на певицу
    Охота на певицу скачать торрент
    Охота на певицу смотреть онлайн
    Cкачать фильм Охота на певицу бесплатно
    Охота на певицу скачать торрент в хорошем качестве
    Охота на певицу смотреть онлайн бесплатно в хорошем качестве


    Вы не можете начинать темы
    Вы не можете отвечать на сообщения
    Вы не можете редактировать свои сообщения
    Вы не можете удалять свои сообщения
    Вы не можете голосовать в опросах
    Вы не можете прикреплять файлы к сообщениям
    Вы можете скачивать файлы