Ссылка на приватное зеркало нашего сайта всего за 1$. Внимание количество ограничено!!!

2 сезон

iTunes

1 сезон

1

2 сезон

2 сезон

iTunes

1 сезон

RePack

30

Новинка

ВАЖНО

ИГРА 18+

pack

RePack

MK11
pack

Забери бонус

RePack

jed

!!Акция!!

Alien_Rage

RePack

fifa19

RePack

Assassins Creed: Odyssey

RePack

NEED FOR SPEED™ PAYBACK

4 сезон

9 сезон

Бесстыжие 9 сезон

Все сериалы

все сериалы на PB.wtf

RePack

FAR CRY 5
  

Милый друг / La dernière vie de Simon (Лео Карманн) [2019, Фантастика, мелодрама, семейный, WEB-DL 720p] DUB [iTunes] pb.wtf

Милый друг через торрент pb.wtf

Размер: 3.08 GB | Добавлен: 7 мес. назад | Торрент скачан:58 раз
Скачать  

21-04-2020 09:03 Милый друг Скачать торрент  

Милый друг | La dernière vie de Simon
Год выпуска: 2019
Страна: Франция, Бельгия
Студия: Geko Films, Wrong Men North, Belga Productions
Жанр: Фантастика, мелодрама, семейный
Продолжительность: 01:39:58
Перевод: Дублированный | iTunes
Субтитры: отсутствуют

Режиссер: Лео Карманн

rating

В ролях: Бенжамен Вуазен, Мартин Карманн, Камилль Клари, Николас Ваншицкий, Жюли-Анна Рот, Альбер Жеффрие, Симон Суссе, Вики Андрен, Флоранс Мюллер, Пьер Качья

Описание: Симон - сирота, у которого есть невероятный дар - перевоплощаться в любого человека, к которому он хотя бы раз прикоснулся. Однажды эта способность и желание обрести близких толкает его на отчаянную ложь. Ложь, которая может стоить ему любви и жизни.

Качество: WEB-DL 720p
Формат: MKV

Видео: MPEG-4 AVC, 960x534@1280x534, 4027 Mbit/s, 25 fps
Аудио: 48 kHz, AC3, 5.1, 384 Kbps | iTunes | RUS |
скриншот  скриншот  скриншот  скриншот  

Общее
Уникальный идентификатор : 275195154993989065040985677776236524891 (0xCF08A8B14BC144916E89F40626D3355B)
Полное имя : C:La.derniere.vie.de.Simon.WEB-DL.720p.mkv
Формат : Matroska
Версия формата : Version 4
Размер файла : 3,08 Гбайт
Продолжительность : 1 ч. 39 м.
Общий поток : 4413 Кбит/сек
Название фильма : La dernière vie de Simon WEB-DL 720p
Дата кодирования : UTC 2020-04-20 22:01:19
Программа кодирования : mkvmerge v45.0.0 ('Heaven in Pennies') 64-bit
Библиотека кодирования : libebml v1.3.10 + libmatroska v1.5.2
Обложка : Yes
Attachments : cover.jpg

Видео
Идентификатор : 1
Формат : AVC
Формат/Информация : Advanced Video Codec
Профиль формата : Main@L3.1
Настройки формата : 2 Ref Frames
Параметр CABAC формата : Нет
Параметр RefFrames формата : 2 кадра
Идентификатор кодека : V_MPEG4/ISO/AVC
Продолжительность : 1 ч. 39 м.
Битрейт : 4027 Кбит/сек
Ширина : 960 пикселей
Высота : 534 пикселя
Соотношение сторон : 2,40:1
Режим частоты кадров : Постоянный
Частота кадров : 25,000 кадров/сек
Цветовое пространство : YUV
Субдискретизация насыщенности : 4:2:0
Битовая глубина : 8 бит
Тип развёртки : Прогрессивная
Бит/(Пиксели*Кадры) : 0.308
Размер потока : 2,75 Гбайт (89%)
Язык : French
Default : Да
Forced : Нет
Цветовой диапазон : Limited
Основные цвета : BT.709
Характеристики трансфера : BT.709
Коэффициенты матрицы : BT.709

Аудио
Идентификатор : 2
Формат : AC-3
Формат/Информация : Audio Coding 3
Коммерческое название : Dolby Digital
Идентификатор кодека : A_AC3
Продолжительность : 1 ч. 39 м.
Вид битрейта : Постоянный
Битрейт : 384 Кбит/сек
Каналы : 6 каналов
ChannelLayout : L R C LFE Ls Rs
Частота : 48,0 КГц
Частота кадров : 31,250 кадров/сек (1536 SPF)
Битовая глубина : 16 бит
Метод сжатия : С потерями
Размер потока : 275 Мбайт (9%)
Заголовок : Russian DUB iTunes
Язык : Russian
ServiceKind/String : Complete Main
Default : Да
Forced : Нет

Меню
00:00:00.000 : en:Глава 1
00:07:59.720 : en:Глава 2
00:16:11.440 : en:Глава 3
00:24:20.800 : en:Глава 4
00:32:38.800 : en:Глава 5
00:41:16.080 : en:Глава 6
00:49:39.600 : en:Глава 7
00:58:28.880 : en:Глава 8
01:06:38.560 : en:Глава 9
01:14:57.800 : en:Глава 10
01:23:04.120 : en:Глава 11
01:31:10.040 : en:Глава 12

pb.wtf



Скачать Милый друг через торрент https://i111.fastpic.ru/big/2020/0421/f9/c884a3324a066739dfa53a16a2f220f9.jpg Скачать фильм Милый друг через торрент бесплантно в хорошем качестве Описание: Симон - сирота, у которого есть невероятный дар - перевоплощаться в любого человека, к которому он хотя бы раз прикоснулся. ... 9.8 10 5
Торрент: Зарегистрирован [2020-04-21 09:03] · скачан: 58 раз
Статус: √ проверено
Размер: 3.08 GB
Как cкачать? Как скачать Милый друг через торрент | qTorrent

% Раздел Тема Автор DL S | L
Фильмы 2019-2020 [DVDrip, WEB-DLRip, HDrip] (DUB, MVO) [ 710 MB ] Милый друг / La dernière vie de Simon [2019 WEB-DLRip ""] coc900 Скачать
1 | 0
Фильмы (WEB-DL 720p, 1080p) [ 3.42 GB ] Милый друг / La dernière vie de Simon [2019 WEB-DL 1080p] bober100 Скачать
2 | 0
Фильмы 2019-2020 [DVDrip, WEB-DLRip, HDrip] (DUB, MVO) [ 1.46 GB ] Милый друг / La dernière vie de Simon [2019 WEB-DLRip] bober100 Скачать
1 | 0


Последний раз редактировалось: bober100 (2020-04-21 14:46), всего редактировалось 1 раз

28-11-2019 20:33  

Отключить всю рекламу на сайте

21-04-2020 13:32 Милый друг Скачать торрент  

Дайте догадаюсь, в бабу превратился.pb.wtf



    Дорогой пользователь! Огромная просьба, поблагодарите релизера, оцените раздачу и оставьте свои комментарий, если Вы скачали Милый друг через торрент бесплатно! Внесите свою лепту в развитие PiratBit!
    Комментировать посты могут только пользователи прошедшие не сложную регистрацию
    Показать сообщения:    

    Милый друг через торрент
    Скачать бесплатно Милый друг
    Милый друг скачать торрент
    Милый друг смотреть онлайн
    Cкачать фильм Милый друг бесплатно
    Милый друг скачать торрент в хорошем качестве
    Милый друг смотреть онлайн бесплатно в хорошем качестве


    Вы не можете начинать темы
    Вы не можете отвечать на сообщения
    Вы не можете редактировать свои сообщения
    Вы не можете удалять свои сообщения
    Вы не можете голосовать в опросах
    Вы не можете прикреплять файлы к сообщениям
    Вы можете скачивать файлы