2 сезон

iTunes

1 сезон

1

iTunes

iTunes

iTunes

1 сезон

RePack

30

ИГРА 18+

pack

ВАЖНО

!!Акция!!

Alien_RageХит недели

RePack

MK11
pack

Забери бонус

RePack

jed

!!Акция!!

Alien_Rage

RePack

fifa19

RePack

Assassins Creed: Odyssey

RePack

NEED FOR SPEED™ PAYBACK

4 сезон

9 сезон

Бесстыжие 9 сезон

Все сериалы

все сериалы на PB.wtf

RePack

FAR CRY 5
  

Садовница / Серии: 1-4 из 4 (Александр Будённый) [2019, Мелодрама, WEB-DL 1080p] pb.wtf

Садовница через торрент pb.wtf

Размер: 6.87 GB | Добавлен: 6 мес. назад | Торрент скачан:7 раз
Скачать  

21-04-2020 18:24 Садовница Скачать торрент  

Садовница
Год выпуска: 2019
Страна: Россия, Украина
Студия: Кинокомпания "Star Media", по заказу АО "Новый канал"
Жанр: Мелодрама
Продолжительность: 00:47:00
Перевод: Не требуется
Субтитры: отсутствуют

Режиссер: Александр Будённый



В ролях: Анна Васильева, Александр Попов (IV), Владислав Мамчур, Марк Терещенко (II), Евгений Ламах, Анастасия Чепелюк, Ирина Мельник, Светлана Зельбет, Ксения Мишина, Елена Колесниченко, Сергей Сипливый, Сергей Кияшко, Сергей Фролов (II)

Описание: Наталья, молодая провинциальная девушка, уверена, что Дмитрий любит ее не меньше, чем она его. Однако его требование сделать аборт разрушают их отношения. Спустя шесть лет Наталья - известный ландшафтный дизайнер, воспитывает ребенка и готовится к свадьбе с Сергеем, которого, как ей кажется, не любит по-настоящему. Внезапно в ее жизни снова появляется Дмитрий с просьбами о прощении и клятвами в любви. Наталья поддается страсти и рвет отношения с Сергеем, не подозревая, что возвращение Дмитрия неслучайно и теперь ее жизнь находится в опасности...

Качество: WEB-DL 1080p
Формат: MKV

Видео: MPEG-4 AVC, ~ 5000 Кбит/с, 1920x1080, 25 кадр/с
Аудио: 48.0 kHz, AC3 Dolby Digital, 2/0 (L,R) ch, ~ 192 kbps
скриншот   скриншот   скриншот   скриншот   скриншот  

General
Unique ID : 171270080938910087906126067123406025209 (0x80D96AF1634E4698759E78BAEAC0B1F9)
Complete name : C:01.Садовница.(2019).WEB-DL (1080p).by.Nicodem.Files-x.mkv
Format : Matroska
File size : 1.70 GiB
Duration : 47mn 9s
Overall bit rate : 5 147 Kbps
Writing application : Lavf56.36.100
Writing library : Lavf56.36.100

Video
ID : 1
Format : AVC
Format/Info : Advanced Video Codec
Format profile : High@L4.1
Format settings, CABAC : Yes
Format settings, ReFrames : 5 frames
Codec ID : V_MPEG4/ISO/AVC
Duration : 47mn 9s
Bit rate : 5 000 Kbps
Width : 1 920 pixels
Height : 1 080 pixels
Display aspect ratio : 16:9
Frame rate mode : Variable
Frame rate : 25.000 fps
Color space : YUV
Chroma subsampling : 4:2:0
Bit depth : 8 bits
Scan type : Progressive
Bits/(Pixel*Frame) : 0.096
Stream size : 1.60 GiB (94%)
Writing library : x264 core 148
Encoding settings : cabac=1 / ref=5 / deblock=1:0:0 / analyse=0x3:0x113 / me=hex / subme=8 / psy=1 / psy_rd=1.00:0.00 / mixed_ref=1 / me_range=16 / chroma_me=1 / trellis=2 / 8x8dct=1 / cqm=0 / deadzone=21,11 / fast_pskip=1 / chroma_qp_offset=-2 / threads=34 / lookahead_threads=5 / sliced_threads=0 / nr=0 / decimate=1 / interlaced=0 / bluray_compat=0 / constrained_intra=0 / bframes=3 / b_pyramid=2 / b_adapt=1 / b_bias=0 / direct=3 / weightb=1 / open_gop=0 / weightp=2 / keyint=250 / keyint_min=25 / scenecut=0 / intra_refresh=0 / rc_lookahead=50 / rc=abr / mbtree=1 / bitrate=5000 / ratetol=1.0 / qcomp=0.60 / qpmin=0 / qpmax=69 / qpstep=4 / ip_ratio=1.40 / aq=1:1.00
Language : English

Audio
ID : 2
Format : AC-3
Format/Info : Audio Coding 3
Mode extension : CM (complete main)
Codec ID : A_AC3
Duration : 47mn 9s
Bit rate mode : Constant
Bit rate : 192 Kbps
Channel(s) : 2 channels
Channel positions : Front: L R
Sampling rate : 44.1 KHz
Bit depth : 16 bits
Compression mode : Lossy
Delay relative to video : 1mn 5s
Stream size : 64.8 MiB (4%)
Language : English / un

pb.wtf



Скачать Садовница через торрент https://i89.fastpic.ru/big/2019/1017/51/132875aea5576313f3cd072ceb688651.jpg Скачать фильм Садовница через торрент бесплантно в хорошем качестве Описание: Наталья, молодая провинциальная девушка, уверена, что Дмитрий любит ее не меньше, чем она его. Однако его требование сделать ... 10 10 3
Торрент: Зарегистрирован [2020-04-21 18:24] · скачан: 7 раз
Статус: √ проверено
Размер: 6.87 GB
Как cкачать? Как скачать Садовница через торрент | qTorrent

% Раздел Тема Автор DL S | L
Зарубежные сериалы [ 2.42 GB ] Садовница / Серии: 1-4 из 4 [2019 Мело WEB-DLRip] bober100 Скачать
1 | 0
Зарубежные сериалы [ 2.38 GB ] Садовница / Серии: 1-4 из 4 [2019 Мело WEB-DLRip-AVC] bober100 Скачать
1 | 0
Наши сериалы [ 4.89 GB ] Садовница / Серии: 1-4 из 4 [2019 Мело WEB-DL 720p] bober100 Скачать
1 | 0

28-11-2019 20:33  

Отключить всю рекламу на сайте

    Дорогой пользователь! Огромная просьба, поблагодарите релизера, оцените раздачу и оставьте свои комментарий, если Вы скачали Садовница через торрент бесплатно! Внесите свою лепту в развитие PiratBit!
    Комментировать посты могут только пользователи прошедшие не сложную регистрацию
    Показать сообщения:    

    Садовница через торрент
    Скачать бесплатно Садовница
    Садовница скачать торрент
    Садовница смотреть онлайн
    Cкачать фильм Садовница бесплатно
    Садовница скачать торрент в хорошем качестве
    Садовница смотреть онлайн бесплатно в хорошем качестве


    Вы не можете начинать темы
    Вы не можете отвечать на сообщения
    Вы не можете редактировать свои сообщения
    Вы не можете удалять свои сообщения
    Вы не можете голосовать в опросах
    Вы не можете прикреплять файлы к сообщениям
    Вы можете скачивать файлы