Всегда рабочее зеркало без VPN и Proxy просто перед .vidak.icu напиши любое слово или цифру, Пример http://j566.vidak.icu

MVO

2 сезон

2 сезон

1

1 сезон

iTunes

2 сезон

13

1 сезон

Распродажа

pack

Рекомендуем

Пиратка

30

ВАЖНО

RePack

MK11

RePack

jed

RePack

fifa19

RePack

RDR2

RePack

NEED FOR SPEED™ PAYBACK

Кинопоиск HD

6 сезон

 Острые козырьки 6 сезон

Все сериалы

все сериалы на PB.wtf

RePack

FAR CRY 5

Anonymous, нам критически не хватает 5601 руб. на оплату серверов и переферии за Апрель, помоги нам пожалуйста, вся надежда только на тебя. В благодарность мы отключим тебе всю рекламу на сайте!

×
  
Magnet ссылка

Легенды «Смертельной битвы»: Месть Скорпиона / Mortal Kombat Legends: Scorpions Revenge (Этан Сполдинг) [2020, Мультфильм, фэнтези, боевик, приключения, BDRip-AVC] MVO [NewComers] - ExKinoRay pb.wtf

Легенды «Смертельной битвы»: Месть Скорпиона через торрент pb.wtf

Раздают: 2 [ 0 KB/s ]
Размер: 2.06 GB | Добавлен: 2 года назад | Торрент скачан:394 раза
Смотреть онлайн Легенды «Смертельной битвы»: Месть Скорпиона | Скачать    Ребята, помогите собрать деньги на оплату серверов!!!

22-04-2020 05:19 Легенды «Смертельной битвы»: Месть Скорпиона Скачать торрент  

Легенды «Смертельной битвы»: Месть Скорпиона / Mortal Kombat Legends: Scorpions Revenge
Год выпуска: 2020
Страна: США / DC Entertainment, Midway Games, Warner Bros. Animation
Жанр: Мультфильм, фэнтези, боевик, приключения
Продолжительность: 01:19:59
Перевод: Профессиональный (многоголосый) [NewComers]
Субтитры: Английские

Режиссер: Этан Сполдинг

rating

В ролях: Дженнифер Карпентер, Грей ДеЛайл, Джоэл МакХэйл, Кевин Майкл Ричардсон, Стивен Блум, Дэрин Де Пол, Робин Аткин Даунс, Фред Таташиор, Джордан Родригез, Патрик Сэйтц

Описание: Сюжет мультфильма расскажет об очередном смертельном турнире Шан Цзуна, в котором участвуют бойцы с Земли и других миров. В центре истории окажется жаждущий мести за смерть семьи и клана Скорпион, который соглашается принять участие в межпространственном состязании.

Качество: BDRip-AVC
Формат: MKV
Видео кодек: H.264
Аудио кодек: AC3
Видео: MPEG-4 AVC, 2796 Кбит/с, 1024x576
Аудио#1: Русский (AC3, 6 ch, 448 Кбит/с) MVO (NewComers)
Аудио#2: Английский (AC3, 6 ch, 448 Кбит/с) Original

Релиз от:
Общее
Уникальный идентификатор : 178116692870185170034463251642461539556 (0x860006F929274419A37E53BEF1114CE4)
Полное имя : D:\Раздача\Legendy.Mest.Scorpiona.2020.BDRip-AVC.ExKinoRay.mkv
Формат : Matroska
Версия формата : Version 4 / Version 2
Размер файла : 2,06 Гбайт
Продолжительность : 1 ч. 19 м.
Общий поток : 3694 Кбит/сек
Название фильма : Mortal.Kombat.Legends.Scorpions.Revenge.2020.BDRip-AVC.grab777 & ExKinoRay
Дата кодирования : UTC 2020-04-22 03:45:58
Программа кодирования : mkvmerge v7.3.0 ('Nouages') 64bit built on Oct 22 2014 18:53:34
Библиотека кодирования : libebml v1.3.0 + libmatroska v1.4.1

Видео
Идентификатор : 1
Формат : AVC
Формат/Информация : Advanced Video Codec
Профиль формата : High@L4.1
Настройки формата : CABAC / 12 Ref Frames
Параметр CABAC формата : Да
Параметр RefFrames формата : 12 кадров
Идентификатор кодека : V_MPEG4/ISO/AVC
Продолжительность : 1 ч. 19 м.
Битрейт : 2796 Кбит/сек
Ширина : 1024 пикселя
Высота : 576 пикселей
Соотношение сторон : 16:9
Режим частоты кадров : Переменный
Частота кадров : 23,976 (23976/1000) кадра/сек
Частота кадров в оригинале : 23,976 (24000/1001) кадра/сек
Цветовое пространство : YUV
Субдискретизация насыщенности : 4:2:0
Битовая глубина : 8 бит
Тип развёртки : Прогрессивная
Бит/(Пиксели*Кадры) : 0.198
Размер потока : 1,56 Гбайт (76%)
Заголовок : Rip by grab777
Библиотека кодирования : x264 core 148 r2665M a01e339
Настройки программы : cabac=1 / ref=12 / deblock=1:-2:-2 / analyse=0x3:0x133 / me=umh / subme=10 / psy=1 / psy_rd=1.00:0.15 / mixed_ref=1 / me_range=32 / chroma_me=1 / trellis=2 / 8x8dct=1 / cqm=0 / deadzone=21,11 / fast_pskip=0 / chroma_qp_offset=-3 / threads=5 / lookahead_threads=1 / sliced_threads=0 / nr=0 / decimate=1 / interlaced=0 / bluray_compat=0 / constrained_intra=0 / bframes=10 / b_pyramid=2 / b_adapt=2 / b_bias=0 / direct=3 / weightb=1 / open_gop=0 / weightp=2 / keyint=230 / keyint_min=23 / scenecut=40 / intra_refresh=0 / rc_lookahead=40 / rc=crf / mbtree=1 / crf=16.0 / qcomp=0.90 / qpmin=1 / qpmax=69 / qpstep=4 / vbv_maxrate=30000 / vbv_bufsize=40000 / crf_max=0.0 / nal_hrd=none / filler=0 / ip_ratio=1.40 / aq=1:0.00
Default : Да
Forced : Нет

Аудио #1
Идентификатор : 2
Формат : AC-3
Формат/Информация : Audio Coding 3
Параметр Endianness формата : Big
Идентификатор кодека : A_AC3
Продолжительность : 1 ч. 19 м.
Вид битрейта : Постоянный
Битрейт : 448 Кбит/сек
Каналы : 6 каналов
Расположение каналов : Front: L C R, Side: L R, LFE
Частота : 48,0 КГц
Частота кадров : 31,250 кадров/сек (1536 SPF)
Битовая глубина : 16 бит
Метод сжатия : С потерями
Размер потока : 256 Мбайт (12%)
Заголовок : MVO (NewComers)
Язык : Russian
ServiceKind/String : Complete Main
Default : Да
Forced : Да

Аудио #2
Идентификатор : 3
Формат : AC-3
Формат/Информация : Audio Coding 3
Параметр Endianness формата : Big
Идентификатор кодека : A_AC3
Продолжительность : 1 ч. 19 м.
Вид битрейта : Постоянный
Битрейт : 448 Кбит/сек
Каналы : 6 каналов
Расположение каналов : Front: L C R, Side: L R, LFE
Частота : 48,0 КГц
Частота кадров : 31,250 кадров/сек (1536 SPF)
Битовая глубина : 16 бит
Метод сжатия : С потерями
Размер потока : 256 Мбайт (12%)
Заголовок : Original
Язык : English
ServiceKind/String : Complete Main
Default : Нет
Forced : Нет

Текст
Идентификатор : 4
Формат : UTF-8
Идентификатор кодека : S_TEXT/UTF8
Идентификатор кодека/Информация : UTF-8 Plain Text
Продолжительность : 1 ч. 17 м.
Битрейт : 38 бит/сек
ElementCount : 868
Размер потока : 21,6 Кбайт (0%)
Заголовок : English
Язык : English
Default : Нет
Forced : Нет

Меню
00:00:00.000 : :Chapter 01
00:09:21.978 : :Chapter 02
00:19:53.567 : :Chapter 03
00:28:12.107 : :Chapter 04
00:35:54.277 : :Chapter 05
00:45:51.082 : :Chapter 06
00:55:18.690 : :Chapter 07
01:04:28.448 : :Chapter 08
01:13:56.724 : :Chapter 09
01:17:22.429 : :Chapter 10

pb.wtf



Скачать Легенды «Смертельной битвы»: Месть Скорпиона через торрент https://pic1.kartinco.top/images/12/rvl1e.jpg Скачать, смотреть онлайн Легенды «Смертельной битвы»: Месть Скорпиона бесплантно в хорошем качестве Описание: Сюжет мультфильма расскажет об очередном смертельном турнире Шан Цзуна, в котором участвуют бойцы с Земли и других миров. В ... 10 10 4
Торрент: Зарегистрирован [2020-04-22 05:19] · скачан: 394 раз
Статус: √ проверено
Размер: 2.06 GB
Как cкачать? Как скачать Легенды «Смертельной битвы»: Месть Скорпиона через торрент | UTorrent

28-11-2019 20:33  

Отключить всю рекламу на сайте

18-05-2020 18:36 Легенды «Смертельной битвы»: Месть Скорпиона Скачать торрент  

здорово!!!pb.wtf



08-06-2020 21:47 Легенды «Смертельной битвы»: Месть Скорпиона Скачать торрент  

очень приличный мультфильм по мотивам Mortal Kombatpb.wtf



    Дорогой пользователь! Огромная просьба, поблагодарите релизера, оцените раздачу и оставьте свои комментарий, если Вы скачали Легенды «Смертельной битвы»: Месть Скорпиона через торрент бесплатно!
    Комментировать посты могут только пользователи прошедшие не сложную регистрацию
    Показать сообщения:    

    Легенды «Смертельной битвы»: Месть Скорпиона через торрент
    Скачать бесплатно Легенды «Смертельной битвы»: Месть Скорпиона
    Легенды «Смертельной битвы»: Месть Скорпиона скачать торрент
    Легенды «Смертельной битвы»: Месть Скорпиона смотреть онлайн
    Cкачать фильм Легенды «Смертельной битвы»: Месть Скорпиона бесплатно
    Легенды «Смертельной битвы»: Месть Скорпиона скачать торрент в хорошем качестве
    Легенды «Смертельной битвы»: Месть Скорпиона смотреть онлайн бесплатно в хорошем качестве


    Вы не можете начинать темы
    Вы не можете отвечать на сообщения
    Вы не можете редактировать свои сообщения
    Вы не можете удалять свои сообщения
    Вы не можете голосовать в опросах
    Вы не можете прикреплять файлы к сообщениям
    Вы можете скачивать файлы