2 сезон

iTunes

MVO

1

2 сезон

iTunes

iTunes

1 сезон

RePack

30

Новинка

ВАЖНО

ИГРА 18+

pack

RePack

MK11
pack

Легкие деньги

RePack

jed

RePack

fifa19

RePack

RDR2

RePack

NEED FOR SPEED™ PAYBACK

4 сезон

9 сезон

Бесстыжие 9 сезон

Все сериалы

все сериалы на PB.wtf

RePack

FAR CRY 5

Anonymous, добрый вечер, мы не успеваем собрать деньги на оплату серверов за декабрь и январь, помогите нам пожалуйста в это трудное время. В качестве благодарности мы отключим Вам всю рекламу на сайте (укажите свой ник в строку Ваше имя)!

×
  
Magnet ссылка

Битва за планету Терра в 3Д / Battle for Terra 3D (Аристоменис Тсирбас / Aristomenis Tsirbas) [2007, мультфильм, фантастика, боевик, приключения, военн, BDRip, 1080p] OverUnder / Вертикальная стереопара pb.wtf

Битва за планету Терра в 3Д через торрент pb.wtf

Размер: 6.99 GB | Добавлен: 9 мес. назад | Торрент скачан:6 раз
Скачать  

22-04-2020 07:15 Битва за планету Терра в 3Д Скачать торрент  

Битва за планету Терра / Battle for Terra

Год выпуска: 2007
Страна: США(MeniThings LLC)
Жанр: мультфильм, фантастика, боевик, приключения, военный
Продолжительность: 01:19:07

Перевод: Профессиональный (дублированный)
Русские субтитры: нет
Режиссер: Аристоменис Тсирбас / Aristomenis Tsirbas

Роли озвучивали: Чед Аллен, Розанна Аркетт, Билл Бирч, Брук Блум, Том Коннолли, Брайан Кокс, Дэвид Кросс, Беверли Д`Анджело, Джим Девоти, Крис Эванс, Джеймс Гарнер, Дэнни Гловер, Марк Хэмилл, Алек Холден, Масам Холден, Ванесса Йоханссон, Брайан Джонсон, Дэвид Крамхолц, Фил ЛаМарр, Джастин Лонг, Уорм Миллер, Лорейн Ньюмен, Аманда Пит, Рон Перлман, Деннис Куэйд, Зои Сайдел, Дэнни Трехо, Люк Уилсон, Ивэн Рэйчел Вуд

Описание: Когда на планете Земля пересохли все реки, исчезли леса, а воздух превратился в пыль, люди исколесили Галактику, чтобы найти себе новый дом. Прекрасная планета Терра стала надеждой людей на спасение. Хитроумное устройство землян Терраформер должен превратить Терру в рай для людей и кошмар для коренных жителей. Катастрофа для террианцев неизбежна, они обречены. Счет идет на дни и часы. И все бы шло по плану, если не одна случайность. Девочка с Терры Молу подбирает раненого пилота — землянина. Они становятся лучшими друзьями и вместе находят хитрый способ спасти Терру — последнюю живую планету Галактики. Они не подозревают, что сразу окажутся в центре бурных, опасных, веселых и удивительных событий…

Сэмпл: http://sendfile.su/1557119

Качество: BDrip, 1080p
Контейнер: MKV
Формат 3D: OverUnder / Вертикальная стереопара
Порядок ракурсов: левый ракурс первый
Видео кодек: x264
Аудио кодек: AC3
Видео: AVC / High@L5.0 / 23,976 fps / 1920х2160 / 11,3 Мбит/сек
Аудио: Русский / AC3 / 48 KHz / 5.1 ch / 448 Кбит/сек
Аудио 2: Английский / AC3 / 48 KHz / 5.1 ch / 640 Кбит/сек

ВНИМАНИЕ ! На встроенных ТВ-плеерах работать не будет!!!

ТВ Samsung в названии которого есть надпись Ultra HD , и LG Ultra HD 800 серии, LG C6P, Xiaomi Mi TV 2 воспроизводят полные стереопары встроенными плеерами
Железные плееры на которых воспроизводятся полные стереопары:Popcorn C-200, Popcorn a-400, Dune HD Smart D1 , Dune HD DUO , Dune HD Smart H1 , Dune HD Smart B1 , Dune HD Max , Dune HD TV-303D, Dune HD TV-102, Dune HD Base 3D, Philips HMP7001, Aura HD, MECOOL BB2, Zidoo x9s, Lake I Cloud, MiBox 3
Чтобы изображение было на весь экран в плеере выставляем, если рип 1920х1600 - то выставляем 2.35:1 , если 1920х2160 - то выставляем 16:9
Общее
Уникальный идентификатор : 238971004804864729766920588769852707359 (0xB3C82432C04486E292C56560A620D21F)
Полное имя : E:\видео\Battle for Terra.Rip by SeRoGa00.mkv
Формат : Matroska
Версия формата : Version 2
Размер файла : 6,99 Гбайт
Продолжительность : 1 ч. 19 м.
Общий поток : 12,7 Мбит/сек
Дата кодирования : UTC 2020-04-22 06:21:02
Программа кодирования : mkvmerge v3.4.0 ('Rapunzel') сборка от May 15 2010 09:38:20
Библиотека кодирования : libebml v0.8.0 + libmatroska v0.9.0

Видео
Идентификатор : 1
Формат : AVC
Формат/Информация : Advanced Video Codec
Профиль формата : High@L5.0
Параметр CABAC формата : Да
Параметр ReFrames формата : 4 кадра
Идентификатор кодека : V_MPEG4/ISO/AVC
Продолжительность : 1 ч. 19 м.
Битрейт : 11,3 Мбит/сек
Ширина : 1920 пикселей
Высота : 2160 пикселей
Соотношение сторон : 0,889
Частота кадров : 23,976 кадра/сек
Цветовое пространство : YUV
Субдискретизация насыщенности : 4:2:0
Битовая глубина : 8 бит
Тип развёртки : Прогрессивная
Бит/(Пиксели*Кадры) : 0.114
Размер потока : 6,25 Гбайт (89%)
Заголовок : Rip by SeRoGa00
Библиотека кодирования : x264 core 157 r2969 d4099dd
Настройки программы : cabac=1 / ref=4 / deblock=1:-3:-3 / analyse=0x3:0x113 / me=umh / subme=10 / psy=1 / psy_rd=1.00:0.15 / mixed_ref=1 / me_range=24 / chroma_me=1 / trellis=2 / 8x8dct=1 / cqm=0 / deadzone=21,11 / fast_pskip=1 / chroma_qp_offset=-3 / threads=12 / lookahead_threads=6 / sliced_threads=0 / nr=0 / decimate=0 / interlaced=0 / bluray_compat=0 / constrained_intra=0 / bframes=10 / b_pyramid=2 / b_adapt=2 / b_bias=0 / direct=3 / weightb=1 / open_gop=0 / weightp=2 / keyint=250 / keyint_min=23 / scenecut=40 / intra_refresh=0 / rc_lookahead=60 / rc=crf / mbtree=1 / crf=16.5 / qcomp=0.60 / qpmin=10 / qpmax=69 / qpstep=4 / vbv_maxrate=40000 / vbv_bufsize=40000 / crf_max=0.0 / nal_hrd=none / filler=0 / ip_ratio=1.40 / aq=1:1.00
Язык : English
Default : Нет
Forced : Нет

Аудио #1
Идентификатор : 2
Формат : AC-3
Формат/Информация : Audio Coding 3
Расширение режима : CM (complete main)
Параметр Endianness формата : Big
Идентификатор кодека : A_AC3
Продолжительность : 1 ч. 19 м.
Вид битрейта : Постоянный
Битрейт : 448 Кбит/сек
Каналы : 6 каналов
Расположение каналов : Front: L C R, Side: L R, LFE
Частота : 48,0 КГц
Битовая глубина : 16 бит
Метод сжатия : С потерями
Задержка видео : 24 мс.
Размер потока : 253 Мбайт (4%)
Язык : Russian
Default : Да
Forced : Нет

Аудио #2
Идентификатор : 3
Формат : AC-3
Формат/Информация : Audio Coding 3
Расширение режима : CM (complete main)
Параметр Endianness формата : Big
Идентификатор кодека : A_AC3
Продолжительность : 1 ч. 19 м.
Вид битрейта : Постоянный
Битрейт : 640 Кбит/сек
Каналы : 6 каналов
Расположение каналов : Front: L C R, Side: L R, LFE
Частота : 48,0 КГц
Битовая глубина : 16 бит
Метод сжатия : С потерями
Размер потока : 362 Мбайт (5%)
Язык : English
Default : Нет
Forced : Нет

Меню
00:00:00.000 : en:00:00:00.000
00:04:58.588 : en:00:04:58.588
00:09:47.336 : en:00:09:47.336
00:16:19.561 : en:00:16:19.561
00:20:38.694 : en:00:20:38.694
00:25:55.511 : en:00:25:55.511
00:30:59.356 : en:00:30:59.356
00:36:01.074 : en:00:36:01.074
00:40:15.538 : en:00:40:15.538
00:44:51.271 : en:00:44:51.271
00:48:27.195 : en:00:48:27.195
00:56:11.701 : en:00:56:11.701
01:00:11.023 : en:01:00:11.023
01:04:28.530 : en:01:04:28.530
01:09:05.599 : en:01:09:05.599
01:17:00.239 : en:01:17:00.239
скриншот  

скриншот  

скриншот  

скриншот  

скриншот  

скриншот  
pb.wtf



Скачать Битва за планету Терра в 3Д через торрент https://d.radikal.ru/d20/2004/24/8ddcaacec613.png Скачать фильм Битва за планету Терра в 3Д через торрент бесплантно в хорошем качестве Описание: Когда на планете Земля пересохли все реки, исчезли леса, а воздух превратился в пыль, люди исколесили Галактику, чтобы найти себе ... 10 10 2
Торрент: Зарегистрирован [2020-04-22 07:15] · скачан: 6 раз
Статус: √ проверено
Размер: 6.99 GB
Как cкачать? Как скачать Битва за планету Терра в 3Д через торрент | UTorrent

28-11-2019 20:33  

Отключить всю рекламу на сайте

    Дорогой пользователь! Огромная просьба, поблагодарите релизера, оцените раздачу и оставьте свои комментарий, если Вы скачали Битва за планету Терра в 3Д через торрент бесплатно! Внесите свою лепту в развитие PiratBit!
    Комментировать посты могут только пользователи прошедшие не сложную регистрацию
    Показать сообщения:    

    Битва за планету Терра в 3Д через торрент
    Скачать бесплатно Битва за планету Терра в 3Д
    Битва за планету Терра в 3Д скачать торрент
    Битва за планету Терра в 3Д смотреть онлайн
    Cкачать фильм Битва за планету Терра в 3Д бесплатно
    Битва за планету Терра в 3Д скачать торрент в хорошем качестве
    Битва за планету Терра в 3Д смотреть онлайн бесплатно в хорошем качестве


    Вы не можете начинать темы
    Вы не можете отвечать на сообщения
    Вы не можете редактировать свои сообщения
    Вы не можете удалять свои сообщения
    Вы не можете голосовать в опросах
    Вы не можете прикреплять файлы к сообщениям
    Вы можете скачивать файлы