Ссылка на приватное зеркало нашего сайта всего за 1$. Внимание количество ограничено!!!

2 сезон

iTunes

1 сезон

1

2 сезон

2 сезон

iTunes

1 сезон

RePack

30

Ultimate

ВАЖНО

ИГРА 18+

pack

RePack

MK11
pack

Забери бонус

RePack

jed

!!Акция!!

Alien_Rage

RePack

fifa19

RePack

Assassins Creed: Odyssey

RePack

NEED FOR SPEED™ PAYBACK

4 сезон

9 сезон

Бесстыжие 9 сезон

Все сериалы

все сериалы на PB.wtf

RePack

FAR CRY 5
  

Пуленепробиваемый / Пуленепробиваемый монах / Bulletproof Monk (Пол Хантер) [2003 г., фэнтези, боевик, комедия, WEB-DLRip 720p / 60 FPS, Дубляж, ( Open Matte )] от R.G. HD-Films pb.wtf

Пуленепробиваемый через торрент pb.wtf

Раздают: 1 [ 0 KB/s ]
Размер: 4.08 GB | Добавлен: 7 мес. назад | Торрент скачан:104 раза
Скачать  

22-04-2020 13:35 Пуленепробиваемый Скачать торрент  

Пуленепробиваемый / Пуленепробиваемый монах / Bulletproof Monk
Год выпуска: : 2003
Страна: : США, Канада
Жанр: : фэнтези, боевик, комедия
Продолжительность: 01:43:53
Перевод: Дубляж
Субтитры: Russian, English

Режиссер: Пол Хантер

Бюджет:
Премьера в мире: 16 апреля 2003

rating

В ролях: Чоу Юнь-Фат, Шонн Уильям Скотт, Джейми Кинг, Карел Роден, Виктория Смёрфит, Маркус Жан Пирэ, Мако, Роджер Йуан, К.К. Коллинз, Шон Белл


Сюжет фильма: Монах — мастер боевых искусств, который охраняет могущественный древний свиток — таинственный артефакт, содержащий ключ к безграничной власти. Монаху нужно найти следующего хранителя свитка, и поиски приводят его в Америку. Согласно древнему пророчеству и к изумлению Монаха его преемником оказывается обаятельный хулиган по имени Кар.

Пока Монах обучает Кара, как выполнять свою работу, этому невероятному дуэту приходится защищать свиток от одержимого жаждой власти человека, который гоняется за ним 60 лет.

В суматохе невероятной акробатики, схваток с применением боевых искусств и остроумных шуток эта комическая странная парочка должна сделать всё, чтобы свиток не попал в руки злодея.


Качество видео: WEB-DLRip 720p / 60 FPS
Формат: MKV
Видео кодек: H.264
Аудио кодек: AC3
Видео : x264, 1280 x 720 ( 16:9 ), 5244 kbps, 60,000 fps, ( 0.095 bpp)
Аудио : Русский, AC-3, 48.0 KHz, 6 ch, 384 Kbps
Релиз от:

Доп. информация: Исходник видео: Amazon STARZ - периодически появляется логотип.

скриншот   скриншот   скриншот   скриншот   скриншот   скриншот  Автор рипа: slaventi-69
x264 [info]: frame I:2747 Avg QP:15.70 size: 84340
x264 [info]: frame P:88217 Avg QP:16.54 size: 23817
x264 [info]: frame B:282647 Avg QP:19.02 size: 6188
x264 [info]: consecutive B-frames: 2.4% 2.6% 8.3% 18.2% 58.0% 10.5%


Общее
Уникальный идентификатор : 156444844847081965841513458384090486128 (0x75B22E5EC58CA2BDE9CABED5B04CD570)
Полное имя : F:\Bulletproof.Monk.(2003).WEBRip.720p.(60 Fps).(Open Matte).mkv
Формат : Matroska
Версия формата : Version 4
Размер файла : 4,08 Гбайт
Продолжительность : 1 ч. 43 м.
Общий поток : 5632 Кбит/сек
Название фильма : Пуленепробиваемый / Пуленепробиваемый монах / Bulletproof Monk (2003) WEBRip 720p (60 Fps) Open Matte
Дата кодирования : UTC 2020-04-20 10:57:07
Программа кодирования : mkvmerge v42.0.0 ('Overtime') 64-bit
Библиотека кодирования : libebml v1.3.10 + libmatroska v1.5.2

Видео
Идентификатор : 1
Формат : AVC
Формат/Информация : Advanced Video Codec
Профиль формата : High@L4.1
Настройки формата : CABAC / 8 Ref Frames
Параметр CABAC формата : Да
Параметр RefFrames формата : 8 кадров
Идентификатор кодека : V_MPEG4/ISO/AVC
Продолжительность : 1 ч. 43 м.
Битрейт : 5244 Кбит/сек
Ширина : 1280 пикселей
Высота : 720 пикселей
Соотношение сторон : 16:9
Режим частоты кадров : Постоянный
Частота кадров : 60,000 кадров/сек
Цветовое пространство : YUV
Субдискретизация насыщенности : 4:2:0
Битовая глубина : 8 бит
Тип развёртки : Прогрессивная
Бит/(Пиксели*Кадры) : 0.095
Размер потока : 3,80 Гбайт (93%)
Заголовок : slaventi-69 ( R.G. HD-Films | 60 fps )
Библиотека кодирования : x264 core 130 r2273 b3065e6
Настройки программы : cabac=1 / ref=8 / deblock=1:-1:-1 / analyse=0x3:0x133 / me=umh / subme=9 / psy=1 / psy_rd=1.00:0.00 / mixed_ref=1 / me_range=28 / chroma_me=1 / trellis=2 / 8x8dct=1 / cqm=0 / deadzone=21,11 / fast_pskip=0 / chroma_qp_offset=-2 / threads=4 / lookahead_threads=1 / sliced_threads=0 / nr=0 / decimate=1 / interlaced=0 / bluray_compat=0 / constrained_intra=0 / bframes=5 / b_pyramid=2 / b_adapt=2 / b_bias=0 / direct=3 / weightb=1 / open_gop=0 / weightp=2 / keyint=250 / keyint_min=23 / scenecut=40 / intra_refresh=0 / rc=crf / mbtree=0 / crf=17.0 / qcomp=0.60 / qpmin=0 / qpmax=69 / qpstep=4 / ip_ratio=1.40 / pb_ratio=1.30 / aq=1:1.00
Язык : English
Default : Да
Forced : Нет

Аудио
Идентификатор : 2
Формат : AC-3
Формат/Информация : Audio Coding 3
Коммерческое название : Dolby Digital
Идентификатор кодека : A_AC3
Продолжительность : 1 ч. 43 м.
Вид битрейта : Постоянный
Битрейт : 384 Кбит/сек
Каналы : 6 каналов
Channel layout : L R C LFE Ls Rs
Частота : 48,0 КГц
Частота кадров : 31,250 кадров/сек (1536 SPF)
Битовая глубина : 16 бит
Метод сжатия : С потерями
Размер потока : 285 Мбайт (7%)
Заголовок : Dub
Язык : Russian
ServiceKind/String : Complete Main
Default : Да
Forced : Нет

Текст #1
Идентификатор : 3
Формат : UTF-8
Идентификатор кодека : S_TEXT/UTF8
Идентификатор кодека/Информация : UTF-8 Plain Text
Продолжительность : 1 ч. 36 м.
Битрейт : 61 бит/сек
ElementCount : 715
Размер потока : 43,8 Кбайт (0%)
Язык : Russian
Default : Нет
Forced : Нет

Текст #2
Идентификатор : 4
Формат : UTF-8
Идентификатор кодека : S_TEXT/UTF8
Идентификатор кодека/Информация : UTF-8 Plain Text
Продолжительность : 1 ч. 34 м.
Битрейт : 41 бит/сек
ElementCount : 936
Размер потока : 28,9 Кбайт (0%)
Язык : English
Default : Нет
Forced : Нет

Текст #3
Идентификатор : 5
Формат : UTF-8
Идентификатор кодека : S_TEXT/UTF8
Идентификатор кодека/Информация : UTF-8 Plain Text
Продолжительность : 1 ч. 36 м.
Битрейт : 43 бит/сек
ElementCount : 1057
Размер потока : 30,8 Кбайт (0%)
Заголовок : SDH
Язык : English
Default : Нет
Forced : Нет

Просьба к переливающим на другие сайты, в оформлении указывайте пожалуйста авторство группы R.G. HD-Films pb.wtf



Скачать Пуленепробиваемый через торрент http://i3.imageban.ru/out/2017/09/09/30c39babd1e6679db558954247d62278.png Скачать фильм Пуленепробиваемый через торрент бесплантно в хорошем качестве В ролях: Чоу Юнь-Фат, Шонн Уильям Скотт, Джейми Кинг, Карел Роден, Виктория Смёрфит, Маркус Жан Пирэ, Мако, Роджер Йуан, К.К. Коллинз, Шон ... 10 10 7
Info! Золотая раздача, скачанное не засчитывается.
Торрент: Зарегистрирован [2020-04-22 13:35] · скачан: 104 раз
Статус: √ проверено
Размер: 4.08 GB
Как cкачать? Как скачать Пуленепробиваемый через торрент | qTorrent

28-11-2019 20:33  

Отключить всю рекламу на сайте

24-04-2020 19:09 Пуленепробиваемый Скачать торрент  

Абажаю Чоу Юнь-Фата!!! Правда здесь он не стреляет из двух "беретт" или из снайперской винтовки, но дедушке пора и отдохнуть от сотен убитых им на экране злодеев - пора передавать эстафету молодым. Жаль, что не BD-rip, но качество изображения нормальное. Благодарю за фильм!!!pb.wtf



27-08-2020 05:17 Пуленепробиваемый Скачать торрент  

еще бы скачатьpb.wtf



    Дорогой пользователь! Огромная просьба, поблагодарите релизера, оцените раздачу и оставьте свои комментарий, если Вы скачали Пуленепробиваемый через торрент бесплатно! Внесите свою лепту в развитие PiratBit!
    Комментировать посты могут только пользователи прошедшие не сложную регистрацию
    Показать сообщения:    

    Пуленепробиваемый через торрент
    Скачать бесплатно Пуленепробиваемый
    Пуленепробиваемый скачать торрент
    Пуленепробиваемый смотреть онлайн
    Cкачать фильм Пуленепробиваемый бесплатно
    Пуленепробиваемый скачать торрент в хорошем качестве
    Пуленепробиваемый смотреть онлайн бесплатно в хорошем качестве


    Вы не можете начинать темы
    Вы не можете отвечать на сообщения
    Вы не можете редактировать свои сообщения
    Вы не можете удалять свои сообщения
    Вы не можете голосовать в опросах
    Вы не можете прикреплять файлы к сообщениям
    Вы можете скачивать файлы