Ссылка на приватное зеркало всего за 1$. Внимание количество ограничено!!!

iTunes

iTunes

iTunes

1

iTunes

iTunes

iTunes

iTunes

iTunes

30
pack

$ от Little Big

ВАЖНО

!!Акция!!

Alien_RageХит недели

RePack

Resident Evil 21

ИГРА 18+

pack

RePack

jed

!!Акция!!

Alien_Rage

RePack

fifa19

RePack

Assassins Creed: Odyssey

RePack

NEED FOR SPEED™ PAYBACK

4 сезон

9 сезон

Бесстыжие 9 сезон

Все сериалы

все сериалы на PB.wtf

RePack

FAR CRY 5
  

Семья Уиллоби / The Willoughbys (Крис Пирн / Kris Pearn) [2020, мультфильм, комедия, семейный, WEB-DL 1080p] [Dub] (Невафильм) pb.wtf

Семья Уиллоби через торрент pb.wtf

Раздают: 12 [ 107 KB/s ]
Размер: 3.11 GB | Добавлен: 1 мес. 12 д. назад | Торрент скачан:454 раза
Скачать  

22-04-2020 14:17 Семья Уиллоби Скачать торрент  

Семья Уиллоби / The Willoughbys
Год выпуска: 2020
Производство: Канада
Жанр: мультфильм, комедия, семейный
Продолжительность: 01:32:00

Перевод: Профессиональный (дублированный) | Невафильм

Субтитры: Русские (Forced, Full), английские (SDH), немецкие, испанские, французкие, итальянские, португальские

Режиссер: Крис Пирн, Кори Эванс, Роб Лодермайер / Kris Pearn, Cory Evans, Rob Lodermeier
Роли озвучивали: Уилл Форте, Мартин Шорт, Алессия Кара, Джейн Краковски, Рики Джервэйс, Майя Рудольф, Терри Крюс, Шон Каллен, Брайан Драммонд, Бонни Райли

Описание: Убеждённые, что лучше им расти самостоятельно, дети семьи Уиллоби придумывают хитрый план, как избавиться от своих эгоистичных родителей, и отправляют их в отпуск. Так начинается их собственный увлекательный путь к взрослению и ответу на вопрос — что на самом деле значит семья?

rating

Качество: WEB-DL 1080p
Контейнер: MKV
Видео: AVC, 1920x1080 (16:9), 24 fps, ~3480 kbps
Аудио №1: E-AC3, 48 kHz, 6 ch, 640 kbps
Аудио №2: E-AC3 JOC, 48 kHz, 6 ch, 768 kbps
Формат субтитров: softsub (SRT)
General
Unique ID : 324671507034396029439604840996203781582 (0xF441752F049A57606242F73B54EDDDCE)
Complete name : The.Willoughbys.2020.1080p.NF.WEB-DL.DDP5.1.Atmos.x264-EniaHD.mkv
Format : Matroska
Format version : Version 4
File size : 3.11 GiB
Duration : 1 h 32 min
Overall bit rate mode : Variable
Overall bit rate : 4 825 kb/s
Movie name : The Willoughbys (2020) - EniaHD
Encoded date : UTC 2020-04-22 07:14:10
Writing application : mkvmerge v45.0.0 ('Heaven in Pennies') 64-bit
Writing library : libebml v1.3.10 + libmatroska v1.5.2

Video
ID : 1
Format : AVC
Format/Info : Advanced Video Codec
Format profile : Main@L4
Format settings : CABAC / 3 Ref Frames
Format settings, CABAC : Yes
Format settings, Reference fra : 3 frames
Codec ID : V_MPEG4/ISO/AVC
Duration : 1 h 32 min
Bit rate mode : Variable
Bit rate : 3 480 kb/s
Maximum bit rate : 5 220 kb/s
Width : 1 920 pixels
Height : 1 080 pixels
Display aspect ratio : 16:9
Frame rate mode : Constant
Frame rate : 24.000 FPS
Color space : YUV
Chroma subsampling : 4:2:0
Bit depth : 8 bits
Scan type : Progressive
Bits/(Pixel*Frame) : 0.070
Stream size : 2.20 GiB (71%)
Writing library : x264 core 148 r2717 0d2410d
Encoding settings : cabac=1 / ref=3 / deblock=1:0:0 / analyse=0x1:0x111 / me=umh / subme=10 / psy=1 / psy_rd=1.00:0.00 / mixed_ref=1 / me_range=24 / chroma_me=1 / trellis=2 / 8x8dct=0 / cqm=0 / deadzone=21,11 / fast_pskip=1 / chroma_qp_offset=-2 / threads=8 / lookahead_threads=1 / sliced_threads=0 / nr=0 / decimate=1 / interlaced=0 / bluray_compat=0 / stitchable=1 / constrained_intra=0 / bframes=2 / b_pyramid=0 / b_adapt=2 / b_bias=0 / direct=3 / weightb=1 / open_gop=0 / weightp=2 / keyint=250 / keyint_min=24 / scenecut=0 / intra_refresh=0 / rc_lookahead=48 / rc=2pass / mbtree=1 / bitrate=3480 / ratetol=1.0 / qcomp=0.50 / qpmin=6 / qpmax=51 / qpstep=4 / cplxblur=20.0 / qblur=0.5 / vbv_maxrate=5220 / vbv_bufsize=6960 / nal_hrd=vbr / filler=0 / ip_ratio=1.40 / aq=1:1.00
Default : Yes
Forced : No

Audio #1
ID : 2
Format : E-AC-3
Format/Info : Enhanced AC-3
Commercial name : Dolby Digital Plus
Codec ID : A_EAC3
Duration : 1 h 32 min
Bit rate mode : Constant
Bit rate : 640 kb/s
Channel(s) : 6 channels
Channel layout : L R C LFE Ls Rs
Sampling rate : 48.0 kHz
Frame rate : 31.250 FPS (1536 SPF)
Compression mode : Lossy
Stream size : 422 MiB (13%)
Language : Russian
Service kind : Complete Main
Default : Yes
Forced : No

Audio #2
ID : 3
Format : E-AC-3 JOC
Format/Info : Enhanced AC-3 with Joint Object Coding
Commercial name : Dolby Digital Plus with Dolby Atmos
Codec ID : A_EAC3
Duration : 1 h 32 min
Bit rate mode : Constant
Bit rate : 768 kb/s
Channel(s) : 6 channels
Channel layout : L R C LFE Ls Rs
Sampling rate : 48.0 kHz
Frame rate : 31.250 FPS (1536 SPF)
Compression mode : Lossy
Stream size : 507 MiB (16%)
Language : English
Service kind : Complete Main
Default : No
Forced : No
Complexity index : 16
Number of dynamic objects : 15
Bed channel count : 1 channel
Bed channel configuration : LFE

Text #1
ID : 4
Format : UTF-8
Codec ID : S_TEXT/UTF8
Codec ID/Info : UTF-8 Plain Text
Duration : 1 h 30 min
Bit rate : 1 b/s
Count of elements : 35
Stream size : 1.27 KiB (0%)
Title : Forced
Language : Russian
Default : Yes
Forced : No

Text #2
ID : 5
Format : UTF-8
Codec ID : S_TEXT/UTF8
Codec ID/Info : UTF-8 Plain Text
Duration : 1 h 30 min
Bit rate : 97 b/s
Count of elements : 1398
Stream size : 64.9 KiB (0%)
Language : Russian
Default : No
Forced : No

Text #3
ID : 6
Format : UTF-8
Codec ID : S_TEXT/UTF8
Codec ID/Info : UTF-8 Plain Text
Duration : 1 h 30 min
Bit rate : 76 b/s
Count of elements : 1581
Stream size : 50.9 KiB (0%)
Title : SDH
Language : English
Default : No
Forced : No

Text #4
ID : 7
Format : UTF-8
Codec ID : S_TEXT/UTF8
Codec ID/Info : UTF-8 Plain Text
Duration : 1 h 30 min
Bit rate : 60 b/s
Count of elements : 1279
Stream size : 40.4 KiB (0%)
Language : German
Default : No
Forced : No

Text #5
ID : 8
Format : UTF-8
Codec ID : S_TEXT/UTF8
Codec ID/Info : UTF-8 Plain Text
Duration : 1 h 30 min
Bit rate : 60 b/s
Count of elements : 1378
Stream size : 39.9 KiB (0%)
Language : Spanish
Default : No
Forced : No

Text #6
ID : 9
Format : UTF-8
Codec ID : S_TEXT/UTF8
Codec ID/Info : UTF-8 Plain Text
Duration : 1 h 30 min
Bit rate : 61 b/s
Count of elements : 1355
Stream size : 40.7 KiB (0%)
Language : French
Default : No
Forced : No

Text #7
ID : 10
Format : UTF-8
Codec ID : S_TEXT/UTF8
Codec ID/Info : UTF-8 Plain Text
Duration : 1 h 30 min
Bit rate : 53 b/s
Count of elements : 1306
Stream size : 35.4 KiB (0%)
Language : Italian
Default : No
Forced : No

Text #8
ID : 11
Format : UTF-8
Codec ID : S_TEXT/UTF8
Codec ID/Info : UTF-8 Plain Text
Duration : 1 h 30 min
Bit rate : 58 b/s
Count of elements : 1383
Stream size : 38.5 KiB (0%)
Language : Portuguese
Default : No
Forced : No
скриншот  скриншот  скриншот  
pb.wtf



Скачать Семья Уиллоби через торрент https://i2.imageban.ru/out/2020/04/22/6047bfc280679220ffccdef7266dba87.jpg Скачать фильм Семья Уиллоби через торрент бесплантно в хорошем качестве Описание: Убеждённые, что лучше им расти самостоятельно, дети семьи Уиллоби придумывают хитрый план, как избавиться от своих эгоистичных ... 9.6 10 12
Торрент: Зарегистрирован [2020-04-22 14:17] · скачан: 454 раз
Статус: √ проверено
Размер: 3.11 GB
Как cкачать? Как скачать Семья Уиллоби через торрент | qTorrent

% Раздел Тема Автор DL S | L
Иностранные мультфильмы [ 747 MB ] Семья Уиллоби / The Willoughbys [2020 мультфильм WEB-DLRip-AVC] Dub [Невафильм] sokol_ok Скачать
13 | 0
Иностранные мультфильмы [ 1.47 GB ] Семья Уиллоби / The Willoughbys [2020 мультфильм WEB-DLRip-AVC] Dub [Невафильм] sokol_ok Скачать
49 | 0
Иностранные мультфильмы [ 1.66 GB ] Семья Уиллоби / The Willoughbys [2020 Мультфильм WEB-DLRip-AVC] DUB [Невафильм] - ExKinoRay Mr. Grab Скачать
8 | 0

28-11-2019 20:33  

Отключить всю рекламу на сайте

    Дорогой пользователь! Огромная просьба, поблагодарите релизера, оцените раздачу и оставьте свои комментарий, если Вы скачали Семья Уиллоби через торрент бесплатно! Внесите свою лепту в развитие PiratBit!
    Комментировать посты могут только пользователи прошедшие не сложную регистрацию
    Показать сообщения:    

    Семья Уиллоби через торрент
    Скачать бесплатно Семья Уиллоби
    Семья Уиллоби скачать торрент
    Семья Уиллоби смотреть онлайн
    Cкачать фильм Семья Уиллоби бесплатно
    Семья Уиллоби скачать торрент в хорошем качестве
    Семья Уиллоби смотреть онлайн бесплатно в хорошем качестве


    Вы не можете начинать темы
    Вы не можете отвечать на сообщения
    Вы не можете редактировать свои сообщения
    Вы не можете удалять свои сообщения
    Вы не можете голосовать в опросах
    Вы не можете прикреплять файлы к сообщениям
    Вы можете скачивать файлы