Ссылка на приватное зеркало нашего сайта всего за 1$. Внимание количество ограничено!!!

2 сезон

iTunes

1 сезон

1

iTunes

iTunes

iTunes

1 сезон

RePack

30

ИГРА 18+

pack

ВАЖНО

!!Акция!!

Alien_RageХит недели

RePack

MK11
pack

Забери бонус

RePack

jed

!!Акция!!

Alien_Rage

RePack

fifa19

RePack

Assassins Creed: Odyssey

RePack

NEED FOR SPEED™ PAYBACK

4 сезон

9 сезон

Бесстыжие 9 сезон

Все сериалы

все сериалы на PB.wtf

RePack

FAR CRY 5
  

Семья Уиллоби / The Willoughbys (Крис Пирн, Кори Эванс, Роб Лодермайер) [2020, Мультфильм, комедия, семейный, WEB-DLRip-AVC] DUB [Невафильм] - ExKinoRay pb.wtf

Семья Уиллоби через торрент pb.wtf

Раздают: 4 [ 0 KB/s ]
Размер: 1.66 GB | Добавлен: 6 мес. назад | Торрент скачан:133 раза
Скачать  

22-04-2020 16:01 Семья Уиллоби Скачать торрент  

Семья Уиллоби / The Willoughbys
Год выпуска: 2020
Страна: Канада / BRON Studios, Creative Wealth Media Finance
Жанр: Мультфильм, комедия, семейный
Продолжительность: 01:32:17
Перевод: Дублированный [Невафильм]
Субтитры: Русские, английские

Режиссер: Крис Пирн, Кори Эванс, Роб Лодермайер

rating

В ролях: Уилл Форте, Мартин Шорт, Алессия Кара, Джейн Краковски, Рики Джервэйс, Майя Рудольф, Терри Крюс, Шон Каллен, Брайан Драммонд, Бонни Райли

Описание: В семье Уиллоби дети решают отдохнуть от эгоистичных родителей, отправив их в отпуск.

Качество: WEB-DLRip-AVC
Формат: MKV
Видео кодек: H.264
Аудио кодек: AC3
Видео: MPEG-4 AVC, 1797 Kбит/с, 1024x432
Аудио#1: Русский (АС3, 6 ch, 384 Кбит/с) Dub (Невафильм)
Аудио#2: Английский (АС3, 6 ch, 384 Кбит/с) Original

Релиз от:
Общее
Уникальный идентификатор : 170453868838912927392027167062485599255 (0x803C389454BD6E739DD6C4661B8B8417)
Полное имя : D:\Раздача\Semya.Uillobi.2020.NF.WEB-DLRip-AVC.ExKinoRay.mkv
Формат : Matroska
Версия формата : Version 4 / Version 2
Размер файла : 1,66 Гбайт
Продолжительность : 1 ч. 32 м.
Общий поток : 2568 Кбит/сек
Название фильма : The Willoughbys (2020) WEB-DLRip-AVC.grab777 & ExKinoRay
Дата кодирования : UTC 2020-04-22 14:57:25
Программа кодирования : mkvmerge v7.3.0 ('Nouages') 64bit built on Oct 22 2014 18:53:34
Библиотека кодирования : libebml v1.3.0 + libmatroska v1.4.1

Видео
Идентификатор : 1
Формат : AVC
Формат/Информация : Advanced Video Codec
Профиль формата : High@L4.1
Настройки формата : CABAC / 12 Ref Frames
Параметр CABAC формата : Да
Параметр RefFrames формата : 12 кадров
Идентификатор кодека : V_MPEG4/ISO/AVC
Продолжительность : 1 ч. 32 м.
Битрейт : 1797 Кбит/сек
Ширина : 1024 пикселя
Высота : 432 пикселя
Соотношение сторон : 2,40:1
Соотношение сторон в оригинале : 2,40:1
Режим частоты кадров : Переменный
Частота кадров : 24,000 кадра/сек
Цветовое пространство : YUV
Субдискретизация насыщенности : 4:2:0
Битовая глубина : 8 бит
Тип развёртки : Прогрессивная
Бит/(Пиксели*Кадры) : 0.169
Размер потока : 1,16 Гбайт (70%)
Заголовок : Rip by grab777
Библиотека кодирования : x264 core 148 r2665M a01e339
Настройки программы : cabac=1 / ref=12 / deblock=1:-2:-2 / analyse=0x3:0x133 / me=umh / subme=10 / psy=1 / psy_rd=1.00:0.15 / mixed_ref=1 / me_range=32 / chroma_me=1 / trellis=2 / 8x8dct=1 / cqm=0 / deadzone=21,11 / fast_pskip=0 / chroma_qp_offset=-3 / threads=5 / lookahead_threads=1 / sliced_threads=0 / nr=0 / decimate=1 / interlaced=0 / bluray_compat=0 / constrained_intra=0 / bframes=10 / b_pyramid=2 / b_adapt=2 / b_bias=0 / direct=3 / weightb=1 / open_gop=0 / weightp=2 / keyint=240 / keyint_min=24 / scenecut=40 / intra_refresh=0 / rc_lookahead=40 / rc=crf / mbtree=1 / crf=15.0 / qcomp=0.90 / qpmin=1 / qpmax=69 / qpstep=4 / vbv_maxrate=30000 / vbv_bufsize=40000 / crf_max=0.0 / nal_hrd=none / filler=0 / ip_ratio=1.40 / aq=1:0.00
Default : Да
Forced : Нет

Аудио #1
Идентификатор : 2
Формат : AC-3
Формат/Информация : Audio Coding 3
Параметр Endianness формата : Big
Идентификатор кодека : A_AC3
Продолжительность : 1 ч. 32 м.
Вид битрейта : Постоянный
Битрейт : 384 Кбит/сек
Каналы : 6 каналов
Расположение каналов : Front: L C R, Side: L R, LFE
Частота : 48,0 КГц
Частота кадров : 31,250 кадров/сек (1536 SPF)
Битовая глубина : 16 бит
Метод сжатия : С потерями
Размер потока : 253 Мбайт (15%)
Заголовок : Dub (Nevafilm)
Язык : Russian
ServiceKind/String : Complete Main
Default : Да
Forced : Да

Аудио #2
Идентификатор : 3
Формат : AC-3
Формат/Информация : Audio Coding 3
Параметр Endianness формата : Big
Идентификатор кодека : A_AC3
Продолжительность : 1 ч. 32 м.
Вид битрейта : Постоянный
Битрейт : 384 Кбит/сек
Каналы : 6 каналов
Расположение каналов : Front: L C R, Side: L R, LFE
Частота : 48,0 КГц
Частота кадров : 31,250 кадров/сек (1536 SPF)
Битовая глубина : 16 бит
Метод сжатия : С потерями
Размер потока : 253 Мбайт (15%)
Заголовок : Original
Язык : English
ServiceKind/String : Complete Main
Default : Нет
Forced : Нет

Текст #1
Идентификатор : 4
Формат : UTF-8
Идентификатор кодека : S_TEXT/UTF8
Идентификатор кодека/Информация : UTF-8 Plain Text
Продолжительность : 1 ч. 30 м.
Битрейт : 1 бит/сек
ElementCount : 35
Размер потока : 1,27 Кбайт (0%)
Заголовок : Forced
Язык : Russian
Default : Да
Forced : Нет

Текст #2
Идентификатор : 5
Формат : UTF-8
Идентификатор кодека : S_TEXT/UTF8
Идентификатор кодека/Информация : UTF-8 Plain Text
Продолжительность : 1 ч. 30 м.
Битрейт : 97 бит/сек
ElementCount : 1398
Размер потока : 64,9 Кбайт (0%)
Язык : Russian
Default : Нет
Forced : Нет

Текст #3
Идентификатор : 6
Формат : UTF-8
Идентификатор кодека : S_TEXT/UTF8
Идентификатор кодека/Информация : UTF-8 Plain Text
Продолжительность : 1 ч. 30 м.
Битрейт : 76 бит/сек
ElementCount : 1581
Размер потока : 50,9 Кбайт (0%)
Язык : English
Default : Нет
Forced : Нет

pb.wtf



Скачать Семья Уиллоби через торрент http://pic1.kartinco.top/images/12/u9jrb.jpg Скачать фильм Семья Уиллоби через торрент бесплантно в хорошем качестве Описание: В семье Уиллоби дети решают отдохнуть от эгоистичных родителей, отправив их в ... 10 10 1
Торрент: Зарегистрирован [2020-04-22 16:01] · скачан: 133 раз
Статус: √ проверено
Размер: 1.66 GB
Как cкачать? Как скачать Семья Уиллоби через торрент | qTorrent

28-11-2019 20:33  

Отключить всю рекламу на сайте

    Дорогой пользователь! Огромная просьба, поблагодарите релизера, оцените раздачу и оставьте свои комментарий, если Вы скачали Семья Уиллоби через торрент бесплатно! Внесите свою лепту в развитие PiratBit!
    Комментировать посты могут только пользователи прошедшие не сложную регистрацию
    Показать сообщения:    

    Семья Уиллоби через торрент
    Скачать бесплатно Семья Уиллоби
    Семья Уиллоби скачать торрент
    Семья Уиллоби смотреть онлайн
    Cкачать фильм Семья Уиллоби бесплатно
    Семья Уиллоби скачать торрент в хорошем качестве
    Семья Уиллоби смотреть онлайн бесплатно в хорошем качестве


    Вы не можете начинать темы
    Вы не можете отвечать на сообщения
    Вы не можете редактировать свои сообщения
    Вы не можете удалять свои сообщения
    Вы не можете голосовать в опросах
    Вы не можете прикреплять файлы к сообщениям
    Вы можете скачивать файлы