Ссылка на приватное зеркало нашего сайта всего за 1$. Внимание количество ограничено!!!

2 сезон

iTunes

1 сезон

1

iTunes

iTunes

iTunes

1 сезон

RePack

30

ИГРА 18+

pack

ВАЖНО

!!Акция!!

Alien_RageХит недели

RePack

MK11
pack

Забери бонус

RePack

jed

!!Акция!!

Alien_Rage

RePack

fifa19

RePack

Assassins Creed: Odyssey

RePack

NEED FOR SPEED™ PAYBACK

4 сезон

9 сезон

Бесстыжие 9 сезон

Все сериалы

все сериалы на PB.wtf

RePack

FAR CRY 5
  

Венец творения / Серии: 1-4 из 4 (Александр Высоковский) [2020, Мелодрама, SATRip] pb.wtf

Венец творения через торрент pb.wtf

Размер: 2.49 GB | Добавлен: 6 мес. назад | Торрент скачан:29 раз
Скачать  

22-04-2020 19:49 Венец творения Скачать торрент  

Венец творения
Год выпуска: 2020
Страна: Россия
Жанр: Мелодрама
Продолжительность: ~ 00:47:00
Субтитры: отсутствуют

Режиссер: Александр Высоковский

В ролях: Любовь Тихомирова, Алексей Фатеев, Валерий Панков, Марина Денисова, Дмитрий Калязин, Сослан Фидаров, Марина Куделинская, Ирина Прокудина, Маргарита Силаева, Ирина Друзь

Описание: История любви между успешной бизнес-леди Лизой и скромным массажистом Евгением. В день рождения Лизы всё идёт кувырком. Вдобавок ко всему на праздник не приезжает жених, которого она так ждала. С горя Лиза проводит ночь с массажистом, с которым недавно познакомилась и которого презирает за отсутствие перспектив. Спустя время Лиза узнает, что ждет ребенка… С трудом, но ей приходится примириться с присутствием Евгения в своей жизни, и она вдруг узнает его с другой стороны… Постепенно меняется и Лиза. И в какой-то момент понимает, что в ее жизни появилась настоящая Любовь...

Качество: SATRip
Формат: AVI

Видео: XviD, 720x400, ~ 1700 Кбит/с, 0.235 bit/pixel, 25 кадр/с
Аудио: МР3, 48,0 КГц, 2 ch, 192 Кбит/с
скриншот  скриншот  скриншот  скриншот  скриншот  

Общее
Полное имя : D:\Венец.Творения.XviD.2019.SATRip.7turza™\01.Венец.Творения.7turza™.avi
Формат : AVI
Формат/Информация : Audio Video Interleave
Размер файла : 671 Мбайт
Продолжительность : 49 м. 20 с.
Общий поток : 1900 Кбит/сек
Название фильма : S01 E01 # from 7turza #
Программа кодирования : Lavf58.29.100

Видео
Идентификатор : 0
Формат : MPEG-4 Visual
Профиль формата : Advanced Simple@L5
Настройки формата : BVOP1
Параметр BVOP формата : 1
Параметр QPel формата : Нет
Параметр GMC формата : Без точки перехода
Параметр матрицы формата : Default (H.263)
Идентификатор кодека : XVID
Идентификатор кодека/Подсказка : XviD
Продолжительность : 49 м. 20 с.
Битрейт : 1696 Кбит/сек
Ширина : 720 пикселей
Высота : 400 пикселей
Соотношение сторон : 16:9
Частота кадров : 25,000 кадров/сек
Цветовое пространство : YUV
Субдискретизация насыщенности : 4:2:0
Битовая глубина : 8 бит
Тип развёртки : Прогрессивная
Бит/(Пиксели*Кадры) : 0.235
Размер потока : 598 Мбайт (89%)
Библиотека кодирования : XviD 67

Аудио
Идентификатор : 1
Формат : MPEG Audio
Версия формата : Version 1
Профиль формата : Layer 3
Настройки формата : Joint stereo
Идентификатор кодека : 55
Идентификатор кодека/Подсказка : MP3
Продолжительность : 49 м. 20 с.
Вид битрейта : Постоянный
Битрейт : 192 Кбит/сек
Каналы : 2 канала
Частота : 48,0 КГц
Размер потока : 67,8 Мбайт (10%)
Выравнивание : Соединение по промежуткам
Продолжительность промежутка : 24 мс. (0,60 видеокадр)
Библиотека кодирования : LAME3.100€ 2‚/(ƒ†'

pb.wtf



Скачать Венец творения через торрент https://d.radikal.ru/d22/2004/7c/e56f44da27c0.jpg Скачать фильм Венец творения через торрент бесплантно в хорошем качестве Описание: История любви между успешной бизнес-леди Лизой и скромным массажистом Евгением. В день рождения Лизы всё идёт кувырком. Вдобавок ... 8.2 10 5
Торрент: Зарегистрирован [2020-04-22 19:49] · скачан: 29 раз
Статус: √ проверено
Размер: 2.49 GB
Как cкачать? Как скачать Венец творения через торрент | qTorrent

% Раздел Тема Автор DL S | L
Наши сериалы [ 2.43 GB ] Венец творения / Серии: 1-4 из 4 [2020 Мело WEB-DLRip-AVC] bober100 Скачать
1 | 0
Наши сериалы [ 2.44 GB ] Венец творения / Серии: 1-4 из 4 [2020 Мело WEB-DLRip] bober100 Скачать
1 | 0

28-11-2019 20:33  

Отключить всю рекламу на сайте

    Дорогой пользователь! Огромная просьба, поблагодарите релизера, оцените раздачу и оставьте свои комментарий, если Вы скачали Венец творения через торрент бесплатно! Внесите свою лепту в развитие PiratBit!
    Комментировать посты могут только пользователи прошедшие не сложную регистрацию
    Показать сообщения:    

    Венец творения через торрент
    Скачать бесплатно Венец творения
    Венец творения скачать торрент
    Венец творения смотреть онлайн
    Cкачать фильм Венец творения бесплатно
    Венец творения скачать торрент в хорошем качестве
    Венец творения смотреть онлайн бесплатно в хорошем качестве


    Вы не можете начинать темы
    Вы не можете отвечать на сообщения
    Вы не можете редактировать свои сообщения
    Вы не можете удалять свои сообщения
    Вы не можете голосовать в опросах
    Вы не можете прикреплять файлы к сообщениям
    Вы можете скачивать файлы