Anonymous, доброй ночи, присоединяйтесь к нам в Telegram!, здесь всегда актуальный адрес сайта, оперативная поддержка и многое другое!

>

5.6

iTunes

7.4

MVO

5.7

MVO

1

7.7

1 сезон

6.8

iTunes

7.3

1 сезон

13

6.7

1 сезон

8.3

RePack

30

ULTIMATE

pack

9.9

Лицензия

ВАЖНО

ИГРА 18+

pack

7.3

RePack

MK11

7.7

RePack

jed

7.8

RePack

fifa19

8.5

RePack

RDR2

RePack

NEED FOR SPEED™ PAYBACK

4 сезон

9 сезон

Бесстыжие 9 сезон

Все сериалы

все сериалы на PB.wtf

RePack

FAR CRY 5

Anonymous, доброй ночи, мы катастрофически не успеваем собрать деньги на оплату серверов, помогите нам пожалуйста 5,10,15р., для нас важна любая помощь . В качестве благодарности мы отключим Вам всю рекламу на сайте (укажите свой ник в строку Ваше имя)!

×
  
Magnet ссылка

Мир! Дружба! Жвачка! / Сезон: 1 / Серии: 1-8 из 8 + Фильм о Фильме (Илья Аксёнов) [2020, Комедия, драма, WEBRip, (Версия 18+)] pb.wtf

Мир! Дружба! Жвачка! через торрент pb.wtf

Размер: 5.27 GB | Добавлен: 1 год 4 мес. назад | Торрент скачан:103 раза
Смотреть онлайн Мир! Дружба! Жвачка! | Скачать    Ребята, помогите собрать деньги на оплату серверов!!!

23-04-2020 01:16 Мир! Дружба! Жвачка! Скачать торрент  

Мир! Дружба! Жвачка!
Год выпуска: 2020
Страна: Россия
Выпущено: Россия, Good Story Media по заказу телеканала ТНТ
Жанр: Комедия, драма
Продолжительность: ~ 00:50:00
Перевод: Не требуется
Субтитры: отсутствуют
Версия 18+.

Режиссер: Илья Аксёнов



В ролях: Юрий Борисов (II), Ксения Каталымова, Степан Девонин, Егор Губарев, Валентина Ляпина, Фёдор Рощин, Ангелина Стречина, Сергей Стёпин, Никита Павленко, Аскар Нигамедзянов

Описание: Сериал о юношеской любви, семейных ценностях, России в преддверии осени 1993-го и возможности выбора, кем стать и по какому пути идти дальше… В центре сюжета – история о простом пареньке Саньке Рябинине. Он верен друзьям, дорожит семьей и обладает обостренным чувством справедливости. Знакомство с соседской девчонкой Женей меняет его жизнь и впутывает в череду опасных событий, в финале которых герой поймет, что ничего не будет прежним ни для него, ни для семьи, ни для всей России…

Качество: WEBRip
Формат: AVI

Видео: 720x304 (2.37:1), 25 fps, XviD ~1500 kbps avg, 0.272 bit/pixel
Аудио: 48.0 kHz, AC3 Dolby Digital, 2/0 (L,R) ch, ~ 192 kbps
скриншот  скриншот  скриншот  скриншот  скриншот  

General
Complete name : D:\Mir.druzba.zvacka.2020.WEB-DLRip.25Kuzmich\Mir.druzba.zvacka.e01.WEB-DLRip.25Kuzmich.avi
Format : AVI
Format/Info : Audio Video Interleave
File size : 600 MiB
Duration : 49 min 42 s
Overall bit rate : 1 688 kb/s
Writing application : VirtualDubMod 1.5.10.3 | www.virtualdub-fr.org || (build 2550/release)
Writing library : VirtualDubMod build 2550/release

Video
ID : 0
Format : MPEG-4 Visual
Format profile : Advanced Simple@L5
Format settings : BVOP1
Format settings, BVOP : 1
Format settings, QPel : No
Format settings, GMC : No warppoints
Format settings, Matrix : Default (MPEG)
Codec ID : XVID
Codec ID/Hint : XviD
Duration : 49 min 42 s
Bit rate : 1 486 kb/s
Width : 720 pixels
Height : 304 pixels
Display aspect ratio : 2.35:1
Frame rate : 25.000 FPS
Color space : YUV
Chroma subsampling : 4:2:0
Bit depth : 8 bits
Scan type : Progressive
Compression mode : Lossy
Bits/(Pixel*Frame) : 0.272
Stream size : 528 MiB (88%)
Writing library : XviD 73

Audio
ID : 1
Format : AC-3
Format/Info : Audio Coding 3
Codec ID : 2000
Duration : 49 min 42 s
Bit rate mode : Constant
Bit rate : 192 kb/s
Channel(s) : 2 channels
Channel positions : Front: L R
Sampling rate : 48.0 kHz
Frame rate : 31.250 FPS (1536 SPF)
Bit depth : 16 bits
Compression mode : Lossy
Stream size : 68.3 MiB (11%)
Alignment : Split accross interleaves
Interleave, duration : 40 ms (1.00 video frame)
Interleave, preload duratio : 500 ms
Service kind : Complete Main

Когда раздача ведётся путём добавления новых серий, при каждом добавлении создётся новый торрент. Чтобы начать докачку новой серии, пользователям необходимо сделать следующее:
(1) остановить скачивание,
(2) удалить старый торрент у себя из клиента (старые серии удалять не надо),
(3) скачать новый торрент и запустить его у себя в клиенте вместо старого, при этом указать клиенту путь в старую папку, куда и должно происходить скачивание новых серий.
Ваш клиент при этом должен произвести хеширование (проверку) старой папки (если не производит сам - помогите ему сделать это), и будет докачивать только те серии, которых у вас ещё нет. Старые серии при этом не удаляются, а продолжают раздаваться!
Eсли вы уже удалили старые серии, то предотвратить повторную закачку старых серий можно, отжав галочку в соответсвующих местах при запуске нового торрента. По возможности, желательно не удалять старые серии как можно дольше, чтобы релизёр не столько продолжал раздавать старые серии, а смог сконцентрироваться на новых.
pb.wtf



Скачать Мир! Дружба! Жвачка! через торрент https://img12.lostpic.net/2020/04/22/aa58be82d2d5d6bd2f3fc6e122614d72.jpg Скачать, смотреть онлайн Мир! Дружба! Жвачка! бесплантно в хорошем качестве Описание: Сериал о юношеской любви, семейных ценностях, России в преддверии осени 1993-го и возможности выбора, кем стать и по какому пути ... 10 10 22
Торрент: Зарегистрирован [2020-05-28 20:46] · скачан: 103 раз
Статус: √ проверено
Размер: 5.27 GB
Как cкачать? Как скачать Мир! Дружба! Жвачка! через торрент | UTorrent

% Раздел Тема Автор DL S | L
TNT serials [ 13.77 GB ] Мир! Дружба! Жвачка! / Сезон: 2 / Серии: 1-8 из 8 + Фильм о фильме [2021 WEBRip 1080p ] bober100 Скачать
7 | 0
Наши сериалы [ 5.3 GB ] Мир! Дружба! Жвачка! / Сезон: 2 / Серии: 1-8 из 8 + Фильм о фильме [2021 WEBRip-AVC ] bober100 Скачать
1 | 1
TNT serials [ 9.36 GB ] Мир! Дружба! Жвачка! / Сезон: 2 / Серии: 1-8 из 8 + Фильм о фильме [2021 WEBRip 720p ] bober100 Скачать
3 | 0
TNT serials [ 5.27 GB ] Мир! Дружба! Жвачка! / Сезон: 2 / Серии: 1-8 из 8 + Фильм о фильме [2021 WEBRip ] bober100 Скачать
14 | 166
TNT serials [ 13.29 GB ] Мир! Дружба! Жвачка! / Сезон: 1 / Серии: 1-8 из 8 + Фильм о Фильме [2020 WEBRip 1080p ] bober100 Скачать
4 | 0
TNT serials [ 5.12 GB ] Мир! Дружба! Жвачка! / Сезон: 1 / Серии: 1-8 из 8 + Фильм о Фильме [2020 WEBRip-AVC ] bober100 Скачать
3 | 0
TNT serials [ 4.9 GB ] Мир! Дружба! Жвачка! / Сезон: 1 / Серии: 1-8 из 8 + Фильм о Фильме [2020 WEBRip ] bober100 Скачать
1 | 0


Последний раз редактировалось: bober100 (2020-05-28 20:46), всего редактировалось 1 раз

28-11-2019 20:33  

Отключить всю рекламу на сайте

    Дорогой пользователь! Огромная просьба, поблагодарите релизера, оцените раздачу и оставьте свои комментарий, если Вы скачали Мир! Дружба! Жвачка! через торрент бесплатно!
    Комментировать посты могут только пользователи прошедшие не сложную регистрацию
    Показать сообщения:    

    Мир! Дружба! Жвачка! через торрент
    Скачать бесплатно Мир! Дружба! Жвачка!
    Мир! Дружба! Жвачка! скачать торрент
    Мир! Дружба! Жвачка! смотреть онлайн
    Cкачать фильм Мир! Дружба! Жвачка! бесплатно
    Мир! Дружба! Жвачка! скачать торрент в хорошем качестве
    Мир! Дружба! Жвачка! смотреть онлайн бесплатно в хорошем качестве


    Вы не можете начинать темы
    Вы не можете отвечать на сообщения
    Вы не можете редактировать свои сообщения
    Вы не можете удалять свои сообщения
    Вы не можете голосовать в опросах
    Вы не можете прикреплять файлы к сообщениям
    Вы можете скачивать файлы