2 сезон

iTunes

MVO

1

2 сезон

iTunes

iTunes

1 сезон

RePack

30

Новинка

ВАЖНО

ИГРА 18+

pack

RePack

MK11
pack

Легкие деньги

RePack

jed

RePack

fifa19

RePack

RDR2

RePack

NEED FOR SPEED™ PAYBACK

4 сезон

9 сезон

Бесстыжие 9 сезон

Все сериалы

все сериалы на PB.wtf

RePack

FAR CRY 5

Anonymous, добрый вечер, мы не успеваем собрать деньги на оплату серверов за декабрь и январь, помогите нам пожалуйста в это трудное время. В качестве благодарности мы отключим Вам всю рекламу на сайте (укажите свой ник в строку Ваше имя)!

×
  
Magnet ссылка

Звёздные войны: Скайуокер. Восход в 3Д / Star Wars: Episode IX - The Rise of Skywalker 3D (Джей Джей Абрамс / J.J. Abrams) [2019, фантастика, фэнтези, боевик, приключения, BDRip, 1080p] OverUnder / Вертикальная стереопара (iTunes) pb.wtf

Звёздные войны: Скайуокер. Восход в 3Д через торрент pb.wtf

Размер: 28.57 GB | Добавлен: 8 мес. назад | Торрент скачан:15 раз
Скачать  

23-04-2020 14:30 Звёздные войны: Скайуокер. Восход в 3Д Скачать торрент  

Звёздные войны: Скайуокер. Восход / Star Wars: Episode IX - The Rise of Skywalker

Год выпуска: 2019
Страна: США (Lucasfilm Ltd., Walt Disney Pictures, Bad Robot)
Жанр: фантастика, фэнтези, боевик, приключения
Продолжительность: 02:21:53

Перевод: Профессиональный дублированный(iTunes)
Русские субтитры: нет
Режиссер: Джей Джей Абрамс / J.J. Abrams

В ролях: Дэйзи Ридли, Адам Драйвер, Кэрри Фишер, Марк Хэмилл, Джон Бойега, Оскар Айзек, Энтони Дэниелс, Наоми Аки, Донал Глисон, Ричард Э. Грант

Описание: Фильм завершает невероятную историю семьи Скайуокеров, длящуюся уже более сорока лет, и обещает дать ответы на все загадки из предыдущих серий. Зрителя ожидают старые и новые герои, уникальные миры, увлекательные путешествия на край Галактики и грандиозный финал фантастической саги.

Сэмпл: http://sendfile.su/1557380

Качество: BDrip, 1080p
Контейнер: MKV
Формат 3D: OverUnder / Вертикальная стереопара
Порядок ракурсов: левый ракурс первый
Видео кодек: x264
Аудио кодек: AC3
Видео: AVC / High@L5.0 / 23,976 fps / 1920х2160 / 27,2 Мбит/сек
Аудио: Русский / AC3 / 48 KHz / 5.1 ch / 384 Кбит/сек(iTunes)
Аудио 2: Английский / AC3 / 48 KHz / 5.1 ch / 640 Кбит/сек

ВНИМАНИЕ ! На встроенных ТВ-плеерах работать не будет!!!

ТВ Samsung в названии которого есть надпись Ultra HD , и LG Ultra HD 800 серии, LG C6P, Xiaomi Mi TV 2 воспроизводят полные стереопары встроенными плеерами
Железные плееры на которых воспроизводятся полные стереопары:Popcorn C-200, Popcorn a-400, Dune HD Smart D1 , Dune HD DUO , Dune HD Smart H1 , Dune HD Smart B1 , Dune HD Max , Dune HD TV-303D, Dune HD TV-102, Dune HD Base 3D, Philips HMP7001, Aura HD, MECOOL BB2, Zidoo x9s, Lake I Cloud, MiBox 3
Чтобы изображение было на весь экран в плеере выставляем, если рип 1920х1600 - то выставляем 2.35:1 , если 1920х2160 - то выставляем 16:9
Общее
Уникальный идентификатор : 231336856461556553654804879055049291254 (0xAE09DB9FFCEA3038BD822E3D707575F6)
Полное имя : E:\видео\Star Wars Episode IX - The Rise of Skywalker.Rip by SeRoGa00.mkv
Формат : Matroska
Версия формата : Version 2
Размер файла : 28,6 Гбайт
Продолжительность : 2 ч. 21 м.
Общий поток : 28,8 Мбит/сек
Дата кодирования : UTC 2020-04-23 13:41:08
Программа кодирования : mkvmerge v3.4.0 ('Rapunzel') сборка от May 15 2010 09:38:20
Библиотека кодирования : libebml v0.8.0 + libmatroska v0.9.0

Видео
Идентификатор : 1
Формат : AVC
Формат/Информация : Advanced Video Codec
Профиль формата : High@L5.0
Параметр CABAC формата : Да
Параметр ReFrames формата : 4 кадра
Идентификатор кодека : V_MPEG4/ISO/AVC
Продолжительность : 2 ч. 21 м.
Битрейт : 27,2 Мбит/сек
Ширина : 1920 пикселей
Высота : 2160 пикселей
Соотношение сторон : 0,889
Частота кадров : 23,976 кадра/сек
Цветовое пространство : YUV
Субдискретизация насыщенности : 4:2:0
Битовая глубина : 8 бит
Тип развёртки : Прогрессивная
Бит/(Пиксели*Кадры) : 0.274
Размер потока : 27,0 Гбайт (94%)
Заголовок : Rip by SeRoGa00
Библиотека кодирования : x264 core 157 r2969 d4099dd
Настройки программы : cabac=1 / ref=4 / deblock=1:-3:-3 / analyse=0x3:0x113 / me=umh / subme=10 / psy=1 / psy_rd=1.00:0.15 / mixed_ref=1 / me_range=24 / chroma_me=1 / trellis=2 / 8x8dct=1 / cqm=0 / deadzone=21,11 / fast_pskip=1 / chroma_qp_offset=-3 / threads=18 / lookahead_threads=6 / sliced_threads=0 / nr=0 / decimate=0 / interlaced=0 / bluray_compat=0 / constrained_intra=0 / bframes=10 / b_pyramid=2 / b_adapt=2 / b_bias=0 / direct=3 / weightb=1 / open_gop=0 / weightp=2 / keyint=250 / keyint_min=23 / scenecut=40 / intra_refresh=0 / rc_lookahead=60 / rc=crf / mbtree=1 / crf=16.5 / qcomp=0.60 / qpmin=10 / qpmax=69 / qpstep=4 / vbv_maxrate=40000 / vbv_bufsize=40000 / crf_max=0.0 / nal_hrd=none / filler=0 / ip_ratio=1.40 / aq=1:1.00
Язык : English
Default : Нет
Forced : Нет

Аудио #1
Идентификатор : 2
Формат : AC-3
Формат/Информация : Audio Coding 3
Расширение режима : CM (complete main)
Параметр Endianness формата : Big
Идентификатор кодека : A_AC3
Продолжительность : 2 ч. 21 м.
Вид битрейта : Постоянный
Битрейт : 384 Кбит/сек
Каналы : 6 каналов
Расположение каналов : Front: L C R, Side: L R, LFE
Частота : 48,0 КГц
Битовая глубина : 16 бит
Метод сжатия : С потерями
Размер потока : 390 Мбайт (1%)
Язык : Russian
Default : Да
Forced : Нет

Аудио #2
Идентификатор : 3
Формат : AC-3
Формат/Информация : Audio Coding 3
Расширение режима : CM (complete main)
Параметр Endianness формата : Big
Идентификатор кодека : A_AC3
Продолжительность : 2 ч. 21 м.
Вид битрейта : Постоянный
Битрейт : 640 Кбит/сек
Каналы : 6 каналов
Расположение каналов : Front: L C R, Side: L R, LFE
Частота : 48,0 КГц
Битовая глубина : 16 бит
Метод сжатия : С потерями
Размер потока : 650 Мбайт (2%)
Язык : English
Default : Нет
Forced : Нет

Меню
00:00:00.000 : en:00:00:00.000
00:00:09.188 : en:00:00:09.188
00:01:40.944 : en:00:01:40.944
00:03:47.823 : en:00:03:47.823
00:06:42.913 : en:00:06:42.913
00:08:26.685 : en:00:08:26.685
00:10:04.907 : en:00:10:04.907
00:12:48.153 : en:00:12:48.153
00:13:54.010 : en:00:13:54.010
00:15:17.427 : en:00:15:17.427
00:17:13.211 : en:00:17:13.211
00:19:25.049 : en:00:19:25.049
00:21:28.588 : en:00:21:28.588
00:25:27.703 : en:00:25:27.703
00:27:14.894 : en:00:27:14.894
00:30:41.559 : en:00:30:41.559
00:35:49.076 : en:00:35:49.076
00:41:37.757 : en:00:41:37.757
00:43:15.271 : en:00:43:15.271
00:45:28.362 : en:00:45:28.362
00:48:24.581 : en:00:48:24.581
00:54:37.577 : en:00:54:37.577
00:58:49.204 : en:00:58:49.204
01:02:54.780 : en:01:02:54.780
01:06:23.114 : en:01:06:23.114
01:09:54.618 : en:01:09:54.618
01:13:07.393 : en:01:13:07.393
01:18:23.626 : en:01:18:23.626
01:23:41.235 : en:01:23:41.235
01:27:02.895 : en:01:27:02.895
01:30:23.137 : en:01:30:23.137
01:35:00.831 : en:01:35:00.831
01:38:47.891 : en:01:38:47.891
01:40:35.875 : en:01:40:35.875
01:43:03.146 : en:01:43:03.146
01:45:27.875 : en:01:45:27.875
01:48:48.199 : en:01:48:48.199
01:53:27.645 : en:01:53:27.645
01:55:30.768 : en:01:55:30.768
01:59:02.980 : en:01:59:02.980
02:01:37.759 : en:02:01:37.759
02:05:20.440 : en:02:05:20.440
02:09:42.702 : en:02:09:42.702
02:12:25.907 : en:02:12:25.907
скриншот  

скриншот  

скриншот  

скриншот  

скриншот  

скриншот  
pb.wtf



Скачать Звёздные войны: Скайуокер. Восход в 3Д через торрент https://c.radikal.ru/c02/2004/93/a701dcaa5afd.png Скачать фильм Звёздные войны: Скайуокер. Восход в 3Д через торрент бесплантно в хорошем качестве Описание: Фильм завершает невероятную историю семьи Скайуокеров, длящуюся уже более сорока лет, и обещает дать ответы на все загадки из ... 10 10 1
Торрент: Зарегистрирован [2020-04-23 14:30] · скачан: 15 раз
Статус: √ проверено
Размер: 28.57 GB
Как cкачать? Как скачать Звёздные войны: Скайуокер. Восход в 3Д через торрент | UTorrent

28-11-2019 20:33  

Отключить всю рекламу на сайте

    Дорогой пользователь! Огромная просьба, поблагодарите релизера, оцените раздачу и оставьте свои комментарий, если Вы скачали Звёздные войны: Скайуокер. Восход в 3Д через торрент бесплатно! Внесите свою лепту в развитие PiratBit!
    Комментировать посты могут только пользователи прошедшие не сложную регистрацию
    Показать сообщения:    

    Звёздные войны: Скайуокер. Восход в 3Д через торрент
    Скачать бесплатно Звёздные войны: Скайуокер. Восход в 3Д
    Звёздные войны: Скайуокер. Восход в 3Д скачать торрент
    Звёздные войны: Скайуокер. Восход в 3Д смотреть онлайн
    Cкачать фильм Звёздные войны: Скайуокер. Восход в 3Д бесплатно
    Звёздные войны: Скайуокер. Восход в 3Д скачать торрент в хорошем качестве
    Звёздные войны: Скайуокер. Восход в 3Д смотреть онлайн бесплатно в хорошем качестве


    Вы не можете начинать темы
    Вы не можете отвечать на сообщения
    Вы не можете редактировать свои сообщения
    Вы не можете удалять свои сообщения
    Вы не можете голосовать в опросах
    Вы не можете прикреплять файлы к сообщениям
    Вы можете скачивать файлы