2 сезон

iTunes

MVO

1

2 сезон

iTunes

iTunes

1 сезон

RePack

30

Новинка

ВАЖНО

ИГРА 18+

pack

RePack

MK11
pack

Легкие деньги

RePack

jed

RePack

fifa19

RePack

RDR2

RePack

NEED FOR SPEED™ PAYBACK

4 сезон

9 сезон

Бесстыжие 9 сезон

Все сериалы

все сериалы на PB.wtf

RePack

FAR CRY 5

Anonymous, добрый день, мы не успеваем собрать деньги на оплату серверов за декабрь и январь, помогите нам пожалуйста в это трудное время. В качестве благодарности мы отключим Вам всю рекламу на сайте (укажите свой ник в строку Ваше имя)!

×
  
Magnet ссылка

Несломленный: Путь к искуплению / Unbroken: Path to Redemption (Харольд Кронк) [2018, Драма, биография, BDRip-AVC] DUB [Пифагор / Netflix] +MVO [HDRezka Studio] pb.wtf

Несломленный: Путь к искуплению через торрент pb.wtf

Размер: 2.9 GB | Добавлен: 8 мес. назад | Торрент скачан:24 раза
Скачать  

23-04-2020 18:25 Несломленный: Путь к искуплению Скачать торрент  

Несломленный: Путь к искуплению | Unbroken: Path to Redemption
Год выпуска: 2018
Страна: США
Студия: Universal 1440 Entertainment, Matt Baer Films
Жанр: Драма, биография
Продолжительность: 01:38:30
Перевод:
#1: Дублированный | Пифагор по заказу Netflix
#2: Профессиональный многоголосый | HDRezka Studio
Субтитры: Русские (Forced), английские (Full)

Режиссер: Харольд Кронк

rating


В ролях: Сэмюэл К. Хант, Мерритт Паттерсон, Уилл Грэхэм, Лаки Афарату, Винченцо Амато, Дерек Брэндон, Эллисон Брайант, Эндрю Колдуэлл, Ванесса Белл Кэллоуэй, Бобби Кампо

Описание: Луи Замперини, спортсмен и герой войны, попавший в плен к японцам, возвращается в Калифорнию, где его ждет борьба с посттравматическим синдромом. Героя преследуют ночные кошмары, обуревает ярость, горечь и сильная депрессия. Жена убеждает его присоединиться к евангелизационной кампании Билли Грэма.

Качество: BDRip-AVC
Формат: MKV

Видео: 1024x576 (16:9), 23,976 fps, MPEG-4 AVC ~ 3127 Kbps avg, 0.221 bit/pixel
Аудио#1: AC3, 48 kHz, 6 ch, ~448.00 kbps avg | русский | Пифагор |
Аудио#2: AC3, 48 kHz, 2 ch, ~192.00 kbps avg | русский | HDRezka Studio |
Аудио#3: AC3, 48 kHz, 6 ch, ~448.00 kbps avg | английский | Оригинал |
скриншот  скриншот  скриншот  скриншот  скриншот  

Общее
Уникальный идентификатор : 241450661246664265392368661871533829355 (0xB5A5B4B327F553EA1FB63B4C63C12CEB)
Полное имя : Unbroken.Path.to.Redemption.2018.BDRip.2.90Gb.x264.mkv
Формат : Matroska
Версия формата : Version 4
Размер файла : 2,90 Гбайт
Продолжительность : 1 ч. 38 м.
Общий поток : 4210 Кбит/сек
Название фильма : Несломленный: Путь к искуплению (2018)
Дата кодирования : UTC 2020-04-23 17:53:34
Программа кодирования : mkvmerge v41.0.0 ('Smarra') 64-bit
Библиотека кодирования : libebml v1.3.9 + libmatroska v1.5.2
Обложка : Yes
Attachments : cover.jpg

Видео
Идентификатор : 1
Формат : AVC
Формат/Информация : Advanced Video Codec
Профиль формата : High@L4.1
Настройки формата : CABAC / 10 Ref Frames
Параметр CABAC формата : Да
Параметр RefFrames формата : 10 кадров
Идентификатор кодека : V_MPEG4/ISO/AVC
Продолжительность : 1 ч. 38 м.
Битрейт : 3127 Кбит/сек
Ширина : 1024 пикселя
Высота : 576 пикселей
Соотношение сторон : 16:9
Режим частоты кадров : Постоянный
Частота кадров : 23,976 (24000/1001) кадра/сек
Цветовое пространство : YUV
Субдискретизация насыщенности : 4:2:0
Битовая глубина : 8 бит
Тип развёртки : Прогрессивная
Бит/(Пиксели*Кадры) : 0.221
Размер потока : 2,15 Гбайт (74%)
Заголовок : #stillet
Библиотека кодирования : x264 core 152 r2851bm ba24899
Настройки программы : cabac=1 / ref=10 / deblock=1:-3:-3 / analyse=0x3:0x113 / me=umh / subme=11 / psy=1 / psy_rd=1.00:0.15 / mixed_ref=1 / me_range=32 / chroma_me=1 / trellis=2 / 8x8dct=1 / cqm=0 / deadzone=21,11 / fast_pskip=0 / chroma_qp_offset=-3 / threads=8 / lookahead_threads=3 / sliced_threads=0 / nr=0 / decimate=0 / interlaced=0 / bluray_compat=0 / constrained_intra=0 / bframes=11 / b_pyramid=2 / b_adapt=2 / b_bias=0 / direct=3 / weightb=1 / open_gop=0 / weightp=2 / keyint=240 / keyint_min=23 / scenecut=40 / intra_refresh=0 / rc=2pass / mbtree=0 / bitrate=3127 / ratetol=1.0 / qcomp=0.60 / qpmin=0 / qpmax=69 / qpstep=4 / cplxblur=20.0 / qblur=0.5 / ip_ratio=1.40 / pb_ratio=1.30 / aq=1:1.00
Язык : English
Default : Да
Forced : Нет

Аудио #1
Идентификатор : 2
Формат : AC-3
Формат/Информация : Audio Coding 3
Коммерческое название : Dolby Digital
Идентификатор кодека : A_AC3
Продолжительность : 1 ч. 38 м.
Вид битрейта : Постоянный
Битрейт : 448 Кбит/сек
Каналы : 6 каналов
ChannelLayout : L R C LFE Ls Rs
Частота : 48,0 КГц
Частота кадров : 31,250 кадров/сек (1536 SPF)
Метод сжатия : С потерями
Размер потока : 316 Мбайт (11%)
Заголовок : DUB | Пифагор
Язык : Russian
Default : Да
Forced : Да

Аудио #2
Идентификатор : 3
Формат : AC-3
Формат/Информация : Audio Coding 3
Коммерческое название : Dolby Digital
Идентификатор кодека : A_AC3
Продолжительность : 1 ч. 38 м.
Вид битрейта : Постоянный
Битрейт : 192 Кбит/сек
Каналы : 2 канала
ChannelLayout : L R
Частота : 48,0 КГц
Частота кадров : 31,250 кадров/сек (1536 SPF)
Метод сжатия : С потерями
Размер потока : 135 Мбайт (5%)
Заголовок : MVO | HDRezka Studio
Язык : Russian
Default : Нет
Forced : Нет

Аудио #3
Идентификатор : 4
Формат : AC-3
Формат/Информация : Audio Coding 3
Коммерческое название : Dolby Digital
Идентификатор кодека : A_AC3
Продолжительность : 1 ч. 38 м.
Вид битрейта : Постоянный
Битрейт : 448 Кбит/сек
Каналы : 6 каналов
ChannelLayout : L R C LFE Ls Rs
Частота : 48,0 КГц
Частота кадров : 31,250 кадров/сек (1536 SPF)
Метод сжатия : С потерями
Размер потока : 316 Мбайт (11%)
Язык : English
Default : Нет
Forced : Нет

Текст #1
Идентификатор : 5
Формат : UTF-8
Идентификатор кодека : S_TEXT/UTF8
Идентификатор кодека/Информация : UTF-8 Plain Text
Продолжительность : 1 ч. 37 м.
Битрейт : 6 бит/сек
ElementCount : 84
Размер потока : 4,95 Кбайт (0%)
Заголовок : Forced
Язык : Russian
Default : Да
Forced : Да

Текст #2
Идентификатор : 6
Формат : UTF-8
Идентификатор кодека : S_TEXT/UTF8
Идентификатор кодека/Информация : UTF-8 Plain Text
Продолжительность : 1 ч. 36 м.
Битрейт : 56 бит/сек
ElementCount : 1145
Размер потока : 39,8 Кбайт (0%)
Заголовок : Full
Язык : English
Default : Нет
Forced : Нет

Меню
00:00:00.000 : en:Chapter 1
00:05:19.611 : en:Chapter 2
00:09:29.277 : en:Chapter 3
00:13:23.094 : en:Chapter 4
00:17:29.590 : en:Chapter 5
00:23:11.181 : en:Chapter 6
00:29:01.323 : en:Chapter 7
00:33:35.889 : en:Chapter 8
00:37:28.371 : en:Chapter 9
00:40:52.116 : en:Chapter 10
00:43:27.980 : en:Chapter 11
00:50:56.637 : en:Chapter 12
00:56:45.319 : en:Chapter 13
01:00:17.697 : en:Chapter 14
01:07:33.466 : en:Chapter 15
01:15:19.432 : en:Chapter 16
01:20:07.261 : en:Chapter 17
01:27:16.857 : en:Chapter 18
01:31:52.590 : en:Chapter 19
01:34:03.555 : en:Chapter 20

pb.wtf



Скачать Несломленный: Путь к искуплению через торрент https://i111.fastpic.ru/big/2020/0423/dc/54de10550c7080417621c537b45592dc.jpg Скачать фильм Несломленный: Путь к искуплению через торрент бесплантно в хорошем качестве Описание: Луи Замперини, спортсмен и герой войны, попавший в плен к японцам, возвращается в Калифорнию, где его ждет борьба с ... 10 10 6
Торрент: Зарегистрирован [2020-04-23 18:25] · скачан: 24 раз
Статус: √ проверено
Размер: 2.9 GB
Как cкачать? Как скачать Несломленный: Путь к искуплению через торрент | UTorrent

% Раздел Тема Автор DL S | L
Фильмы 2018 [DVDrip, WEB-DLRip, HDrip] (DUB, MVO) [ 1.46 GB ] Несломленный: Путь к искуплению / Unbroken: Path to Redemption [2018 биография BDRip] DUB [Пифагор / Netflix] bober100 Скачать
1 | 0
Фильмы [HD 720p, 1080p] (Хороший звук DUB, MVO) [ 10.69 GB ] Несломленный: Путь к искуплению / Unbroken: Path to Redemption [2018 биография BDRip 1080p] DUB [Пифагор / Netflix] bober100 Скачать
1 | 0
Фильмы [HD 720p, 1080p] (Хороший звук DUB, MVO) [ 5.88 GB ] Несломленный: Путь к искуплению / Unbroken: Path to Redemption [2018 биография BDRip 720p] DUB [Пифагор / Netflix] bober100 Скачать
1 | 0

28-11-2019 20:33  

Отключить всю рекламу на сайте

    Дорогой пользователь! Огромная просьба, поблагодарите релизера, оцените раздачу и оставьте свои комментарий, если Вы скачали Несломленный: Путь к искуплению через торрент бесплатно! Внесите свою лепту в развитие PiratBit!
    Комментировать посты могут только пользователи прошедшие не сложную регистрацию
    Показать сообщения:    

    Несломленный: Путь к искуплению через торрент
    Скачать бесплатно Несломленный: Путь к искуплению
    Несломленный: Путь к искуплению скачать торрент
    Несломленный: Путь к искуплению смотреть онлайн
    Cкачать фильм Несломленный: Путь к искуплению бесплатно
    Несломленный: Путь к искуплению скачать торрент в хорошем качестве
    Несломленный: Путь к искуплению смотреть онлайн бесплатно в хорошем качестве


    Вы не можете начинать темы
    Вы не можете отвечать на сообщения
    Вы не можете редактировать свои сообщения
    Вы не можете удалять свои сообщения
    Вы не можете голосовать в опросах
    Вы не можете прикреплять файлы к сообщениям
    Вы можете скачивать файлы