Ссылка на приватное зеркало нашего сайта всего за 1$. Внимание количество ограничено!!!

2 сезон

iTunes

1 сезон

1

iTunes

iTunes

iTunes

1 сезон

RePack

30

ИГРА 18+

pack

ВАЖНО

!!Акция!!

Alien_RageХит недели

RePack

MK11
pack

Забери бонус

RePack

jed

!!Акция!!

Alien_Rage

RePack

fifa19

RePack

Assassins Creed: Odyssey

RePack

NEED FOR SPEED™ PAYBACK

4 сезон

9 сезон

Бесстыжие 9 сезон

Все сериалы

все сериалы на PB.wtf

RePack

FAR CRY 5
  

Ищейка / Сезон: 4 / Серии: 1-16 из 16 (Андрей Головков) [2020, Детектив, WEB-DL 720p] pb.wtf

Ищейка через торрент pb.wtf

Раздают: 1 [ 0 KB/s ]
Размер: 15.66 GB | Добавлен: 6 мес. назад | Торрент скачан:20 раз
Скачать  

24-04-2020 06:53 Ищейка Скачать торрент  

Ищейка
Год выпуска: 2020
Страна: Россия
Жанр: Детектив
Продолжительность: ~ 00:50:00 серия
Перевод: Не требуется
Субтитры: отсутствуют

Режиссер: Андрей Головков



В ролях: Анна Банщикова, Александр Макогон, Дмитрий Миллер, Владислав Павлов, Эдуард Чекмазов, Владимир Николенко, Анатолий Гущин, Денис Бургазлиев, Ирина Пулина, Юлия Бедарева, Игорь Филиппов, Дмитрий Мазуров, Мария Берсенева, Александр Никольский (II), Анатолий Кот

Описание: Прошло больше двух лет с тех пор, как подполковник Александра Кушнир отошла от дел и с головой погрузилась в семейные хлопоты. Теперь Александра - счастливая мать маленького Миши, жена Бориса. И всё же, по-прежнему до безумия любя семью, Александра всё чаще не находит себе места без работы. Ежедневно распутывать самые сложные дела и одновременно ухаживать за ребёнком – непосильная задача даже для опытного следователя. Но Александра готова рискнуть. Она ещё не подозревает, что кое-кто из её прошлого теперь будет подстерегать её на каждом шагу…

Качество: WEB-DL 720p
Формат: MKV

Видео: 1280x720, (16:9), 25 fps, AVC MPEG-4 (x264), High@L4 ~ 2500 kbps , 0.109 bit/pixel
Аудио: 48.0 kHz, AC3 Dolby Digital, 2/0 (L,R) ch, ~ 192 kbps
скриншот  скриншот  скриншот  скриншот  скриншот  

Общее
Уникальный идентификатор : 220693892050319564516264687181285031389 (0xA60818F75A5F1A26922EFDAC9627FDDD)
Полное имя : C:\Isheika.S04.2020.WEB-DL.(720p).ExKinoRay\Isheika.S04.E01.2020.WEB-DL.(720p).ExKinoRay.mkv
Формат : Matroska
Версия формата : Version 2
Размер файла : 1 011 Мбайт
Продолжительность : 51 м. 21 с.
Общий поток : 2 752 Кбит/сек
Дата кодирования : UTC 2020-04-10 11:23:36
Программа кодирования : mkvmerge v5.8.0 (''No Sleep / Pillow'') built on Sep 2 2012 15:37:04
Библиотека кодирования : libebml v1.2.3 + libmatroska v1.3.0

Видео
Идентификатор : 1
Формат : AVC
Формат/Информация : Advanced Video Codec
Профиль формата : High@L4
Настройки формата : CABAC / 4 Ref Frames
Параметр CABAC формата : Да
Параметр RefFrames формата : 4 кадра
Идентификатор кодека : V_MPEG4/ISO/AVC
Продолжительность : 51 м. 21 с.
Битрейт : 2 500 Кбит/сек
Ширина : 1 280 пикселей
Высота : 720 пикселей
Соотношение сторон : 16:9
Режим частоты кадров : Постоянный
Частота кадров : 25,000 кадров/сек
Цветовое пространство : YUV
Субдискретизация насыщенности : 4:2:0
Битовая глубина : 8 бит
Тип развёртки : Прогрессивная
Бит/(Пиксели*Кадры) : 0.109
Размер потока : 920 Мбайт (91%)
Язык : Russian
Default : Да
Forced : Нет
Duration_Source : General_Duration

Аудио
Идентификатор : 2
Формат : AC-3
Формат/Информация : Audio Coding 3
Коммерческое название : Dolby Digital
Идентификатор кодека : A_AC3
Продолжительность : 51 м. 21 с.
Вид битрейта : Постоянный
Битрейт : 192 Кбит/сек
Каналы : 2 канала
Channel layout : L R
Частота : 48,0 КГц
Частота кадров : 31,250 кадров/сек (1536 SPF)
Метод сжатия : С потерями
Размер потока : 70,5 Мбайт (7%)
Язык : Russian
Service kind : Complete Main
Default : Да
Forced : Нет
Duration_Source : General_Duration

pb.wtf



Скачать Ищейка через торрент https://a.radikal.ru/a39/2004/50/2a1ef1813403.jpg Скачать фильм Ищейка через торрент бесплантно в хорошем качестве Описание: Прошло больше двух лет с тех пор, как подполковник Александра Кушнир отошла от дел и с головой погрузилась в семейные хлопоты. ... 10 10 2
Торрент: Зарегистрирован [2020-04-24 06:53] · скачан: 20 раз
Статус: √ проверено
Размер: 15.66 GB
Как cкачать? Как скачать Ищейка через торрент | qTorrent

% Раздел Тема Автор DL S | L
Наши сериалы [ 10.23 GB ] Ищейка / Сезон: 4 / Серии: 1-16 из 16 [2020 WEB-DLRip] bober100 Скачать
2 | 0
Наши сериалы [ 9.38 GB ] Ищейка / Сезон: 4 / Серии: 1-16 из 16 [2020 SATRip] bober100 Скачать
1 | 0
Наши сериалы [ 12.31 GB ] Ищейка / Сезон: 4 / Серии: 1-16 из 16 [2020 HDTVRip-AVC] bober100 Скачать
1 | 0
Наши сериалы [ 35.44 GB ] Ищейка / Сезон: 4 / Серии: 1-16 из 16 [2020 HDTV 1080i] bober100 Скачать
1 | 0
Наши сериалы [ 20.73 GB ] Ищейка / Сезон: 4 / Серии: 1-16 из 16 [2020 HDTVRip 720p] bober100 Скачать
1 | 0
Наши сериалы [ 10.11 GB ] Ищейка / Сезон: 4 / Серии: 1-16 из 16 [2020 HDTVRip] bober100 Скачать
1 | 0
Наши сериалы [ 9.5 GB ] Ищейка / Сезон: 4 / Серии: 1-16 из 16 [2020 SATRip-AVC] aleksan55 Скачать
1 | 0

28-11-2019 20:33  

Отключить всю рекламу на сайте

    Дорогой пользователь! Огромная просьба, поблагодарите релизера, оцените раздачу и оставьте свои комментарий, если Вы скачали Ищейка через торрент бесплатно! Внесите свою лепту в развитие PiratBit!
    Комментировать посты могут только пользователи прошедшие не сложную регистрацию
    Показать сообщения:    

    Ищейка через торрент
    Скачать бесплатно Ищейка
    Ищейка скачать торрент
    Ищейка смотреть онлайн
    Cкачать фильм Ищейка бесплатно
    Ищейка скачать торрент в хорошем качестве
    Ищейка смотреть онлайн бесплатно в хорошем качестве


    Вы не можете начинать темы
    Вы не можете отвечать на сообщения
    Вы не можете редактировать свои сообщения
    Вы не можете удалять свои сообщения
    Вы не можете голосовать в опросах
    Вы не можете прикреплять файлы к сообщениям
    Вы можете скачивать файлы