2 сезон

iTunes

MVO

1

2 сезон

iTunes

iTunes

1 сезон

RePack

30

Новинка

ВАЖНО

ИГРА 18+

pack

RePack

MK11
pack

Легкие деньги

RePack

jed

RePack

fifa19

RePack

RDR2

RePack

NEED FOR SPEED™ PAYBACK

4 сезон

9 сезон

Бесстыжие 9 сезон

Все сериалы

все сериалы на PB.wtf

RePack

FAR CRY 5

Anonymous, доброй ночи, мы не успеваем собрать деньги на оплату серверов за декабрь и январь, помогите нам пожалуйста в это трудное время. В качестве благодарности мы отключим Вам всю рекламу на сайте (укажите свой ник в строку Ваше имя)!

×
  
Magnet ссылка

Отмеченный смертью / Помеченный смертью / Нико-3 / Marked for Death (Дуайт Х. Литтл) [1990 г., Боевик, триллер, драма, криминал, BDRip 720p / 60 FPS, MVO, Blu-ray CEE] от R.G. HD-Films pb.wtf

Отмеченный смертью через торрент pb.wtf

Размер: 2.89 GB | Добавлен: 8 мес. назад | Торрент скачан:28 раз
Скачать  

24-04-2020 12:02 Отмеченный смертью Скачать торрент  

Отмеченный смертью / Помеченный смертью / Нико-3 / Marked for Death
Год выпуска: 1990
Страна: США
Жанр: Боевик, триллер, драма, криминал
Продолжительность: 01:33:19
Перевод: Профессиональный (многоголосый Blu-ray CEE )
Субтитры: Russian, Ukrainian, English

Режиссер: Дуайт Х. Литтл

Бюджет: $12 000 000
Премьера в мире: 5 октября 1990

rating

В ролях: Стивен Сигал, Бейзил Уоллес, Кит Дэвид, Том Райт, Джоанна Пакула, Элизабет Грэйсен, Бетти Форд, Даниэль Харрис, Эл Израэл, Арлен Дин Снайдер

Описание: После смерти напарника Джон Хэтчер, специальный агент отдела по борьбе с наркотиками, решает подать в отставку. Переехав к своей сестре в Чикаго, Хэтчер намеревается вести тихое и размеренное существование. Но этому не суждено было сбыться. На пути у бывшего полицейского встает ямайская наркомафия во главе со своим жутким главарем по прозвищу Зомби. Хэтчер оказывается втянутым в кровавые разборки.

Качество: BDRip 720p / 60 FPS
Формат: MKV
Видео кодек: H.264
Аудио кодек: AC3
Видео: x264, 1280 x 544 ( 2,35:1 ), 4056 kbps, 60,000 fps, ( 0.097 bpp)
Аудио#1: Русский, AC-3, 48.0 KHz, 6 ch, 384 Kbps
Релиз от:

скриншот   скриншот   скриншот   скриншот   скриншот   скриншот  Автор рипа: slaventi-69
x264 [info]: frame I:1896 Avg QP:17.91 size: 65261
x264 [info]: frame P:78128 Avg QP:18.81 size: 19109
x264 [info]: frame B:255567 Avg QP:21.04 size: 4771
x264 [info]: consecutive B-frames: 2.0% 2.7% 7.9% 12.3% 68.0% 7.1%


Общее
Уникальный идентификатор : 23150252480900020927429555212373311801 (0x116A93920D0420BF9C96F8B12089C139)
Полное имя : F:\Marked.for.Death.(1990).BDRip.720p.(60 Fps).mkv
Формат : Matroska
Версия формата : Version 4
Размер файла : 2,89 Гбайт
Продолжительность : 1 ч. 33 м.
Общий поток : 4444 Кбит/сек
Название фильма : Отмеченный смертью / Помеченный смертью / Нико-3 / Marked for Death (1990) BDRip 720p (60 Fps)
Дата кодирования : UTC 2020-04-24 11:23:07
Программа кодирования : mkvmerge v42.0.0 ('Overtime') 64-bit
Библиотека кодирования : libebml v1.3.10 + libmatroska v1.5.2

Видео
Идентификатор : 1
Формат : AVC
Формат/Информация : Advanced Video Codec
Профиль формата : High@L4.1
Настройки формата : CABAC / 8 Ref Frames
Параметр CABAC формата : Да
Параметр RefFrames формата : 8 кадров
Идентификатор кодека : V_MPEG4/ISO/AVC
Продолжительность : 1 ч. 33 м.
Битрейт : 4056 Кбит/сек
Ширина : 1280 пикселей
Высота : 544 пикселя
Соотношение сторон : 2,35:1
Режим частоты кадров : Постоянный
Частота кадров : 60,000 кадров/сек
Цветовое пространство : YUV
Субдискретизация насыщенности : 4:2:0
Битовая глубина : 8 бит
Тип развёртки : Прогрессивная
Бит/(Пиксели*Кадры) : 0.097
Размер потока : 2,64 Гбайт (91%)
Заголовок : slaventi-69 ( R.G. HD-Films | 60 fps )
Библиотека кодирования : x264 core 130 r2273 b3065e6
Настройки программы : cabac=1 / ref=8 / deblock=1:-1:-1 / analyse=0x3:0x133 / me=umh / subme=9 / psy=1 / psy_rd=1.00:0.00 / mixed_ref=1 / me_range=26 / chroma_me=1 / trellis=2 / 8x8dct=1 / cqm=0 / deadzone=21,11 / fast_pskip=0 / chroma_qp_offset=-2 / threads=4 / lookahead_threads=1 / sliced_threads=0 / nr=0 / decimate=1 / interlaced=0 / bluray_compat=0 / constrained_intra=0 / bframes=5 / b_pyramid=2 / b_adapt=2 / b_bias=0 / direct=3 / weightb=1 / open_gop=0 / weightp=2 / keyint=250 / keyint_min=23 / scenecut=40 / intra_refresh=0 / rc=crf / mbtree=0 / crf=18.0 / qcomp=0.60 / qpmin=0 / qpmax=69 / qpstep=4 / ip_ratio=1.40 / pb_ratio=1.30 / aq=1:1.00
Язык : English
Default : Да
Forced : Нет

Аудио
Идентификатор : 2
Формат : AC-3
Формат/Информация : Audio Coding 3
Коммерческое название : Dolby Digital
Идентификатор кодека : A_AC3
Продолжительность : 1 ч. 33 м.
Вид битрейта : Постоянный
Битрейт : 384 Кбит/сек
Каналы : 6 каналов
Channel layout : L R C LFE Ls Rs
Частота : 48,0 КГц
Частота кадров : 31,250 кадров/сек (1536 SPF)
Битовая глубина : 16 бит
Метод сжатия : С потерями
Размер потока : 256 Мбайт (9%)
Заголовок : MVO, Blu-ray CEE
Язык : Russian
ServiceKind/String : Complete Main
Default : Да
Forced : Нет

Текст #1
Идентификатор : 3
Формат : UTF-8
Идентификатор кодека : S_TEXT/UTF8
Идентификатор кодека/Информация : UTF-8 Plain Text
Продолжительность : 1 ч. 27 м.
Битрейт : 59 бит/сек
ElementCount : 602
Размер потока : 38,2 Кбайт (0%)
Язык : Russian
Default : Нет
Forced : Нет

Текст #2
Идентификатор : 4
Формат : UTF-8
Идентификатор кодека : S_TEXT/UTF8
Идентификатор кодека/Информация : UTF-8 Plain Text
Продолжительность : 1 ч. 28 м.
Битрейт : 59 бит/сек
ElementCount : 616
Размер потока : 38,5 Кбайт (0%)
Язык : Ukrainian
Default : Нет
Forced : Нет

Текст #3
Идентификатор : 5
Формат : UTF-8
Идентификатор кодека : S_TEXT/UTF8
Идентификатор кодека/Информация : UTF-8 Plain Text
Продолжительность : 1 ч. 27 м.
Битрейт : 39 бит/сек
ElementCount : 660
Размер потока : 25,5 Кбайт (0%)
Язык : English
Default : Нет
Forced : Нет

Меню
00:00:00.000 : en:Death & Drugs (Main Titles)
00:07:52.221 : en:I've Had Enough
00:10:12.028 : en:Uncle John
00:14:02.633 : en:Old Friends
00:16:43.252 : en:Screwface
00:20:19.551 : en:The Curse
00:23:05.258 : en:Blood in the Bar
00:30:57.063 : en:The Posse's Power
00:36:13.504 : en:Death Drives By
00:39:26.363 : en:Looking for Screwface
00:43:00.619 : en:Marked for Death
00:46:50.933 : en:A Message From Screwface
00:50:28.483 : en:Serious Fun
00:59:01.829 : en:The Big Squeeze
01:01:54.877 : en:Ready for War
01:06:10.383 : en:Jamaica
01:11:38.544 : en:An Army of Three
01:18:01.093 : en:The Posse's "Prisoner"
01:20:56.685 : en:Screwface Is Dead
01:26:02.490 : en:Dead Again
01:29:10.762 : en:The Stronger Magic

Просьба к переливающим на другие сайты, в оформлении указывайте пожалуйста авторство группы R.G. HD-Films pb.wtf



Скачать Отмеченный смертью через торрент https://i3.imageban.ru/out/2018/12/13/298fb8efa47f2574dbc48bb13ed8afa6.png Скачать фильм Отмеченный смертью через торрент бесплантно в хорошем качестве Описание: После смерти напарника Джон Хэтчер, специальный агент отдела по борьбе с наркотиками, решает подать в отставку. Переехав к своей ... 8.5 10 6
Торрент: Зарегистрирован [2020-04-24 12:02] · скачан: 28 раз
Статус: √ проверено
Размер: 2.89 GB
Как cкачать? Как скачать Отмеченный смертью через торрент | UTorrent

28-11-2019 20:33  

Отключить всю рекламу на сайте

24-04-2020 18:42 Отмеченный смертью Скачать торрент  

Спасибо большое за фильм!!! Смотрел его только два раза. При первом просмотре было интересно кто же будет врагом Сигала на этот раз? Ямайская мафия. Это что-то!!! А вообще-то мне нравится Джоанна Пакула. Да и фильм смотреть можно. Первые десять фильмов Сигала - это его топ, дальше хуже. Благодарю, забираю в коллекцию.pb.wtf



15-05-2020 11:56 Отмеченный смертью Скачать торрент  

slaventi-69, А недостающую часть Нико - Смерти вопреки будет?pb.wtf



15-05-2020 19:51 Отмеченный смертью Скачать торрент  

Когда-нибудь будет, терпение, мой друг, человека и так заказами завалили. pb.wtf



    Дорогой пользователь! Огромная просьба, поблагодарите релизера, оцените раздачу и оставьте свои комментарий, если Вы скачали Отмеченный смертью через торрент бесплатно! Внесите свою лепту в развитие PiratBit!
    Комментировать посты могут только пользователи прошедшие не сложную регистрацию
    Показать сообщения:    

    Отмеченный смертью через торрент
    Скачать бесплатно Отмеченный смертью
    Отмеченный смертью скачать торрент
    Отмеченный смертью смотреть онлайн
    Cкачать фильм Отмеченный смертью бесплатно
    Отмеченный смертью скачать торрент в хорошем качестве
    Отмеченный смертью смотреть онлайн бесплатно в хорошем качестве


    Вы не можете начинать темы
    Вы не можете отвечать на сообщения
    Вы не можете редактировать свои сообщения
    Вы не можете удалять свои сообщения
    Вы не можете голосовать в опросах
    Вы не можете прикреплять файлы к сообщениям
    Вы можете скачивать файлы