Ссылка на приватное зеркало всего за 1$. Внимание количество ограничено!!!

iTunes

iTunes

iTunes

1

iTunes

iTunes

iTunes

iTunes

iTunes

30
pack

$ от Little Big

ВАЖНО

!!Акция!!

Alien_RageХит недели

RePack

Resident Evil 21

ИГРА 18+

pack

RePack

jed

!!Акция!!

Alien_Rage

RePack

fifa19

RePack

Assassins Creed: Odyssey

RePack

NEED FOR SPEED™ PAYBACK

4 сезон

9 сезон

Бесстыжие 9 сезон

Все сериалы

все сериалы на PB.wtf

RePack

FAR CRY 5
  

Лёд 2 (Жора Крыжовников) [2020, мелодрама, драма, спорт, WEB-DL 720p] [iTunes] pb.wtf

Лёд 2 через торрент pb.wtf

Раздают: 6 [ 3 KB/s ]
Размер: 2.69 GB | Добавлен: 2 мес. 17 д. назад | Торрент скачан:172 раза
Скачать  

24-04-2020 20:23 Лёд 2 Скачать торрент  

Лёд 2
Год выпуска: 2020
Страна: Россия
Жанр: мелодрама, драма, спорт
Продолжительность: 02:10:37
Перевод: Не требуется | iTunes
Субтитры: отсутствуют

Режиссер: Жора Крыжовников

rating

В ролях: Александр Петров, Аглая Тарасова, Мария Аронова, Юлия Хлынина, Надежда Михалкова, Сергей Кузнецов, Сергей Лавыгин, Виталия Корниенко, Вера Тарасова, Евгения Евстигнеева

Описание: Что происходит в сказках после свадьбы принца и принцессы? Фигуристка Надя и хоккеист Саша поженились и теперь мечтают о ребенке. Правда, цена, которую им придется заплатить за эту мечту, будет невообразимо высока. Кажется, что после таких потрясений рассчитывать на счастливый конец уже невозможно. Но если вы так думаете, вы ничего не знаете о настоящих сказках.

Качество: WEB-DL 720p
Формат: MKV

Видео: MPEG-4 AVC, 2569 Kb/s, 1280x536, 24.000 FPS
Аудио: 48 kHz, AC3 Dolby Digital, 3/2 (L,C,R,l,r) + LFE ch, ~384 kbps
скриншот  скриншот  скриншот  скриншот  

Complete name: Led.2.2020.WEB-DL.720p.ELEKTRI4KA.UNIONGANG.mkv
Format: Matroska
Format version: Version 4 / Version 2
File size: 2.69 GiB
Duration: 2 h 10 min
Overall bit rate: 2 951 kb/s
Movie name: ELEKTRI4KA.UNIONGANG
Encoded date: UTC 2020-04-23 22:56:47
Writing application: mkvmerge v8.3.0 ('Over the Horizon') 64bit
Writing library: libebml v1.3.1 + libmatroska v1.4.2

Video
ID: 1
Format: AVC
Format/Info: Advanced Video Codec
Format profile: High@L4
Format settings, CABAC: Yes
Format settings, Reference frames: 4 frames
Codec ID: V_MPEG4/ISO/AVC
Duration: 2 h 10 min
Bit rate: 2 569 kb/s
Width: 1 280 pixels
Height: 536 pixels
Display aspect ratio: 2.40:1
Frame rate mode: Constant
Frame rate: 24.000 FPS
Color space: YUV
Chroma subsampling: 4:2:0
Bit depth: 8 bits
Scan type: Progressive
Bits/(Pixel*Frame): 0.156
Stream size: 2.34 GiB (87%)
Writing library: x264 core 148
Encoding settings: cabac=1 / ref=3 / deblock=1:0:0 / analyse=0x3:0x113 / me=hex / subme=7 / psy=1 / psy_rd=1.00:0.00 / mixed_ref=1 / me_range=16 / chroma_me=1 / trellis=1 / 8x8dct=1 / cqm=0 / deadzone=21, 11 / fast_pskip=1 / chroma_qp_offset=-2 / threads=17 / lookahead_threads=2 / sliced_threads=0 / nr=0 / decimate=1 / interlaced=0 / bluray_compat=0 / constrained_intra=0 / bframes=6 / b_pyramid=2 / b_adapt=1 / b_bias=0 / direct=1 / weightb=1 / open_gop=0 / weightp=2 / keyint=48 / keyint_min=25 / scenecut=0 / intra_refresh=0 / rc_lookahead=40 / rc=2pass / mbtree=1 / bitrate=2569 / ratetol=1.0 / qcomp=0.60 / qpmin=0 / qpmax=69 / qpstep=4 / cplxblur=20.0 / qblur=0.5 / vbv_maxrate=3854 / vbv_bufsize=10279 / nal_hrd=none / filler=0 / ip_ratio=1.40 / aq=1:1.00
Default: Yes
Forced: No

Audio
ID: 2
Format: AC-3
Format/Info: Audio Coding 3
Mode extension: CM (complete main)
Format settings, Endianness: Big
Codec ID: A_AC3
Duration: 2 h 10 min
Bit rate mode: Constant
Bit rate: 384 kb/s
Channel(s): 6 channels
Channel positions: Front: L C R, Side: L R, LFE
Sampling rate: 48.0 kHz
Frame rate: 31.250 FPS (1536 spf)
Bit depth: 16 bits
Compression mode: Lossy
Stream size: 359 MiB (13%)
Language: Russian
Default: Yes
Forced: No

Menu
00:00:00.000: en:1
00:07:57.852: en:2
00:11:51.335: en:3
00:16:46.588: en:4
00:22:17.627: en:5
00:25:56.012: en:6
00:32:11.637: en:7
00:36:24.681: en:8
00:44:39.300: en:9
00:47:56.747: en:10
00:56:41.813: en:11
01:00:41.344: en:12
01:05:41.352: en:13
01:09:53.312: en:14
01:18:51.558: en:15
01:25:30.081: en:16
01:35:31.682: en:17
01:44:05.987: en:18
01:55:41.599: en:19
01:57:48.058: en:20

pb.wtf



Скачать Лёд 2 через торрент https://i2.imageban.ru/out/2020/04/24/9e4e93100f72f29989aa27574f5ff0b9.png Скачать фильм Лёд 2 через торрент бесплантно в хорошем качестве Описание: Что происходит в сказках после свадьбы принца и принцессы? Фигуристка Надя и хоккеист Саша поженились и теперь мечтают о ребенке. ... 10 10 3
Торрент: Зарегистрирован [2020-04-24 20:23] · скачан: 172 раз
Статус: √ проверено
Размер: 2.69 GB
Как cкачать? Как скачать Лёд 2 через торрент | qTorrent

% Раздел Тема Автор DL S | L
S.T.A.L.K.E.R. [ 3.2 GB ] S.T.A.L.K.E.R.: Shadow of Chernobyl - Конец Света 2: Последний Восход [Repack RUS] by SeregA-Lus SeregA_Lus Скачать
12 | 0
Зарубежные сериалы [ 12.54 GB ] Оставленные / Остатки / The Leftovers / Сезон: 2 / Серии 1-10 из 10 [2015 HDTVRip-AVC] MVO [NewStudio] GEKADOL Скачать
1 | 0
Зарубежные сериалы [ 5.86 GB ] Лед / Ice / Сезон: 2 / Серии: 1-10 из 10 [2018 WEBRip] MVO [Jaskier] bober100 Скачать
1 | 0
Фильмы до 2000 г. [ 4.11 GB ] Столкновение с бездной / Deep impact [1998 катастрофа WEB-DLRip-AVC Dub 2 x MVO AVO][Open Matte] от ExKinoRay morfyi Скачать
1 | 0
Фильмы (WEB-DL 720p, 1080p) [ 8.25 GB ] Столкновение с бездной / Deep impact [1998 катастрофа WEB-DLRip 720p Dub 2 x MVO AVO][Open Matte] от ExKinoRay morfyi Скачать
1 | 0
Фантастика [ 624 MB ] Роман Злотников Антон Корнилов - Рыцари Порога 06. Последняя крепость [Том 2] [Fan 12 2017 128 kbps MP3] bober100 Скачать
1 | 0
Наши сериалы [ 1.04 GB ] Последний довод / Серии: 1-2 из 2 [2017 SATRip-AVC] aleksan55 Скачать
1 | 0

28-11-2019 20:33  

Отключить всю рекламу на сайте

    Дорогой пользователь! Огромная просьба, поблагодарите релизера, оцените раздачу и оставьте свои комментарий, если Вы скачали Лёд 2 через торрент бесплатно! Внесите свою лепту в развитие PiratBit!
    Комментировать посты могут только пользователи прошедшие не сложную регистрацию
    Показать сообщения:    

    Лёд 2 через торрент
    Скачать бесплатно Лёд 2
    Лёд 2 скачать торрент
    Лёд 2 смотреть онлайн
    Cкачать фильм Лёд 2 бесплатно
    Лёд 2 скачать торрент в хорошем качестве
    Лёд 2 смотреть онлайн бесплатно в хорошем качестве


    Вы не можете начинать темы
    Вы не можете отвечать на сообщения
    Вы не можете редактировать свои сообщения
    Вы не можете удалять свои сообщения
    Вы не можете голосовать в опросах
    Вы не можете прикреплять файлы к сообщениям
    Вы можете скачивать файлы