Ссылка на приватное зеркало нашего сайта всего за 1$. Внимание количество ограничено!!!

2 сезон

iTunes

1 сезон

1

iTunes

iTunes

iTunes

1 сезон

RePack

30

ИГРА 18+

pack

ВАЖНО

!!Акция!!

Alien_RageХит недели

RePack

MK11
pack

Забери бонус

RePack

jed

!!Акция!!

Alien_Rage

RePack

fifa19

RePack

Assassins Creed: Odyssey

RePack

NEED FOR SPEED™ PAYBACK

4 сезон

9 сезон

Бесстыжие 9 сезон

Все сериалы

все сериалы на PB.wtf

RePack

FAR CRY 5
  

ИП Пирогова / Сезон: 3 / Серии: 1-13 из 13 (Акаки Сахелашвили) [2020, Комедия, WEBRip 1080p] pb.wtf

ИП Пирогова через торрент pb.wtf

Размер: 9.89 GB | Добавлен: 5 мес. назад | Торрент скачан:41 раз
Скачать  

24-04-2020 21:19 ИП Пирогова Скачать торрент  

ИП Пирогова
Год выпуска: 2020
Страна: Россия
Жанр: Комедия
Продолжительность: ~ 00:25:00
Перевод: Не требуется
Субтитры: отсутствуют

Режиссер: Акаки Сахелашвили

rating

В ролях: Елена Подкаминская, Настасья Кербенген, Данила Дунаев, Александр Панкратов-Чёрный, Александр Константинов, Ксения Теплова, Елена Валюшкина, Дмитрий Лысенков, Алексей Агранович, Василина Юсковец

Описание: С тех пор, как Вера Пирогова подписала контракт с сетью ресторанов «Бальзак Гурмэ», прошло полгода. Ее кондитерская, наконец, стала приносить хороший доход, однако строгий контроль в лице владельца сети Дениса Алексеевича не дает Вере расслабиться ни на минуту. К тому же, помощников на кухне стало меньше: сестра Саша готовится стать мамой, частенько злоупотребляя своим интересным положением, дочь Юля с головой окунулась в студенческую жизнь, а неутомимый папа Виктор Павлович каждый день находит новые приключения. Личная жизнь самой Веры по-прежнему оставляет желать лучшего. Запутанные отношения с Андреем осложняются с появлением Дениса, который, оказывается, совсем не равнодушен к Вере.

Качество: WEBRip 1080p
Формат: MKV

Видео: MPEG4 AVC Video, H264, 16:9, 1920x1080, 25 fps, ~6500 kbps, 0.126 bit/pixel
Аудио: 48.0 kHz, AC3 Dolby Digital, 2/0 (L,R) ch, ~ 192 kbps
скриншот  скриншот  скриншот  скриншот  скриншот  

General
Unique ID : 213251176350760696146675649858842265630 (0xA06EAEC03F83F62680BBE94766DE081E)
Complete name : D:\IP.Pirogova.S03.2020.WEB-DL.(1080p).Getty\IP.Pirogova.s03e01.2020.WEB-DL.(1080p).Getty.mkv
Format : Matroska
Format version : Version 4 / Version 2
File size : 1.15 GiB
Duration : 24 min 38 s
Overall bit rate : 6 701 kb/s
Movie name : IP.Pirogova.s03e01.2020.WEB-DL.(1080p).Getty
Encoded date : UTC 2020-04-24 20:58:10
Writing application : mkvmerge v7.8.0 ('River Man') 32bit built on Mar 27 2015 16:18:02
Writing library : libebml v1.3.1 + libmatroska v1.4.2

Video
ID : 1
Format : AVC
Format/Info : Advanced Video Codec
Format profile : High@L4
Format settings : CABAC / 4 Ref Frames
Format settings, CABAC : Yes
Format settings, ReFrames : 4 frames
Codec ID : V_MPEG4/ISO/AVC
Duration : 24 min 38 s
Bit rate : 6 507 kb/s
Width : 1 920 pixels
Height : 1 080 pixels
Display aspect ratio : 16:9
Frame rate mode : Constant
Frame rate : 25.000 FPS
Color space : YUV
Chroma subsampling : 4:2:0
Bit depth : 8 bits
Scan type : Progressive
Bits/(Pixel*Frame) : 0.126
Stream size : 1.12 GiB (97%)
Default : Yes
Forced : No
Color range : Limited
Color primaries : BT.709
Transfer characteristics : BT.709
Matrix coefficients : BT.709

Audio
ID : 2
Format : AC-3
Format/Info : Audio Coding 3
Codec ID : A_AC3
Duration : 24 min 38 s
Bit rate mode : Constant
Bit rate : 192 kb/s
Channel(s) : 2 channels
Channel positions : Front: L R
Sampling rate : 48.0 kHz
Frame rate : 31.250 FPS (1536 SPF)
Bit depth : 16 bits
Compression mode : Lossy
Stream size : 33.8 MiB (3%)
Service kind : Complete Main
Default : Yes
Forced : No

Когда раздача ведётся путём добавления новых серий, при каждом добавлении создётся новый торрент. Чтобы начать докачку новой серии, пользователям необходимо сделать следующее:
(1) остановить скачивание,
(2) удалить старый торрент у себя из клиента (старые серии удалять не надо),
(3) скачать новый торрент и запустить его у себя в клиенте вместо старого, при этом указать клиенту путь в старую папку, куда и должно происходить скачивание новых серий.
Ваш клиент при этом должен произвести хеширование (проверку) старой папки (если не производит сам - помогите ему сделать это), и будет докачивать только те серии, которых у вас ещё нет. Старые серии при этом не удаляются, а продолжают раздаваться!
Eсли вы уже удалили старые серии, то предотвратить повторную закачку старых серий можно, отжав галочку в соответсвующих местах при запуске нового торрента. По возможности, желательно не удалять старые серии как можно дольше, чтобы релизер не столько продолжал раздавать старые серии, а смог сконцентрироваться на новых.
pb.wtf



Скачать ИП Пирогова через торрент https://img12.lostpic.net/2020/04/25/6e80099a341e3b69786a3deb933ece56.jpg Скачать фильм ИП Пирогова через торрент бесплантно в хорошем качестве Описание: С тех пор, как Вера Пирогова подписала контракт с сетью ресторанов «Бальзак Гурмэ», прошло полгода. Ее кондитерская, наконец, ... 10 10 7
Торрент: Зарегистрирован [2020-05-22 07:41] · скачан: 41 раз
Статус: √ проверено
Размер: 9.89 GB
Как cкачать? Как скачать ИП Пирогова через торрент | qTorrent

% Раздел Тема Автор DL S | L
Наши сериалы [ 6.72 GB ] ИП Пирогова / Сезон: 3 / Серии: 1-13 из 13 [2020 WEBRip 720p] bober100 Скачать
1 | 0
Наши сериалы [ 3.82 GB ] ИП Пирогова / Сезон: 3 / Серии: 1-13 из 13 [2020 WEBRip-AVC] bober100 Скачать
2 | 0
Наши сериалы [ 4.45 GB ] ИП Пирогова / Сезон: 3 / Серии: 1-13 из 13 [2020 WEBRip] bober100 Скачать
1 | 0

28-11-2019 20:33  

Отключить всю рекламу на сайте

    Дорогой пользователь! Огромная просьба, поблагодарите релизера, оцените раздачу и оставьте свои комментарий, если Вы скачали ИП Пирогова через торрент бесплатно! Внесите свою лепту в развитие PiratBit!
    Комментировать посты могут только пользователи прошедшие не сложную регистрацию
    Показать сообщения:    

    ИП Пирогова через торрент
    Скачать бесплатно ИП Пирогова
    ИП Пирогова скачать торрент
    ИП Пирогова смотреть онлайн
    Cкачать фильм ИП Пирогова бесплатно
    ИП Пирогова скачать торрент в хорошем качестве
    ИП Пирогова смотреть онлайн бесплатно в хорошем качестве


    Вы не можете начинать темы
    Вы не можете отвечать на сообщения
    Вы не можете редактировать свои сообщения
    Вы не можете удалять свои сообщения
    Вы не можете голосовать в опросах
    Вы не можете прикреплять файлы к сообщениям
    Вы можете скачивать файлы