Ссылка на приватное зеркало нашего сайта всего за 1$. Внимание количество ограничено!!!

2 сезон

iTunes

1 сезон

1

iTunes

iTunes

iTunes

1 сезон

RePack

30

ИГРА 18+

pack

ВАЖНО

!!Акция!!

Alien_RageХит недели

RePack

MK11
pack

Забери бонус

RePack

jed

!!Акция!!

Alien_Rage

RePack

fifa19

RePack

Assassins Creed: Odyssey

RePack

NEED FOR SPEED™ PAYBACK

4 сезон

9 сезон

Бесстыжие 9 сезон

Все сериалы

все сериалы на PB.wtf

RePack

FAR CRY 5
  

ИП Пирогова / Сезон: 3 / Серии: 1-13 из 13 (Акаки Сахелашвили) [2020, Комедия, WEBRip] pb.wtf

ИП Пирогова через торрент pb.wtf

Раздают: 1 [ 185 KB/s ]
Размер: 4.45 GB | Добавлен: 5 мес. 2 д. назад | Торрент скачан:79 раз
Скачать  

24-04-2020 21:25 ИП Пирогова Скачать торрент  

ИП Пирогова
Год выпуска: 2020
Страна: Россия
Жанр: Комедия
Продолжительность: ~ 00:25:00
Перевод: Не требуется
Субтитры: отсутствуют

Режиссер: Акаки Сахелашвили

rating

В ролях: Елена Подкаминская, Настасья Кербенген, Данила Дунаев, Александр Панкратов-Чёрный, Александр Константинов, Ксения Теплова, Елена Валюшкина, Дмитрий Лысенков, Алексей Агранович, Василина Юсковец

Описание: С тех пор, как Вера Пирогова подписала контракт с сетью ресторанов «Бальзак Гурмэ», прошло полгода. Ее кондитерская, наконец, стала приносить хороший доход, однако строгий контроль в лице владельца сети Дениса Алексеевича не дает Вере расслабиться ни на минуту. К тому же, помощников на кухне стало меньше: сестра Саша готовится стать мамой, частенько злоупотребляя своим интересным положением, дочь Юля с головой окунулась в студенческую жизнь, а неутомимый папа Виктор Павлович каждый день находит новые приключения. Личная жизнь самой Веры по-прежнему оставляет желать лучшего. Запутанные отношения с Андреем осложняются с появлением Дениса, который, оказывается, совсем не равнодушен к Вере.

Качество: WEBRip
Формат: AVI

Видео: 720x400 (1.80:1), 25 fps, XviD ~1750 kbps avg, 0.244 bit/pixel
Аудио: 48.0 kHz, AC3 Dolby Digital, 2/0 (L,R) ch, ~ 192 kbps
скриншот  скриншот  скриншот  скриншот  скриншот  

General
Complete name : D:\IP.Pirogova.S03.WEB-DLRip.25Kuzmich\IP.Pirogova.s03e01.WEB-DLRip.25Kuzmich.avi
Format : AVI
Format/Info : Audio Video Interleave
File size : 349 MiB
Duration : 24 min 57 s
Overall bit rate : 1 958 kb/s
Writing application : VirtualDubMod 1.5.10.3 | www.virtualdub-fr.org || (build 2550/release)
Writing library : VirtualDubMod build 2550/release

Video
ID : 0
Format : MPEG-4 Visual
Format profile : Advanced Simple@L5
Format settings : BVOP1
Format settings, BVOP : 1
Format settings, QPel : No
Format settings, GMC : No warppoints
Format settings, Matrix : Default (MPEG)
Codec ID : XVID
Codec ID/Hint : XviD
Duration : 24 min 57 s
Bit rate : 1 756 kb/s
Width : 720 pixels
Height : 400 pixels
Display aspect ratio : 16:9
Frame rate : 25.000 FPS
Color space : YUV
Chroma subsampling : 4:2:0
Bit depth : 8 bits
Scan type : Progressive
Compression mode : Lossy
Bits/(Pixel*Frame) : 0.244
Stream size : 313 MiB (90%)
Writing library : XviD 73

Audio
ID : 1
Format : AC-3
Format/Info : Audio Coding 3
Codec ID : 2000
Duration : 24 min 57 s
Bit rate mode : Constant
Bit rate : 192 kb/s
Channel(s) : 2 channels
Channel positions : Front: L R
Sampling rate : 48.0 kHz
Frame rate : 31.250 FPS (1536 SPF)
Bit depth : 16 bits
Compression mode : Lossy
Stream size : 34.3 MiB (10%)
Alignment : Split accross interleaves
Interleave, duration : 40 ms (1.00 video frame)
Interleave, preload duratio : 500 ms
Service kind : Complete Main

Когда раздача ведётся путём добавления новых серий, при каждом добавлении создётся новый торрент. Чтобы начать докачку новой серии, пользователям необходимо сделать следующее:
(1) остановить скачивание,
(2) удалить старый торрент у себя из клиента (старые серии удалять не надо),
(3) скачать новый торрент и запустить его у себя в клиенте вместо старого, при этом указать клиенту путь в старую папку, куда и должно происходить скачивание новых серий.
Ваш клиент при этом должен произвести хеширование (проверку) старой папки (если не производит сам - помогите ему сделать это), и будет докачивать только те серии, которых у вас ещё нет. Старые серии при этом не удаляются, а продолжают раздаваться!
Eсли вы уже удалили старые серии, то предотвратить повторную закачку старых серий можно, отжав галочку в соответсвующих местах при запуске нового торрента. По возможности, желательно не удалять старые серии как можно дольше, чтобы релизер не столько продолжал раздавать старые серии, а смог сконцентрироваться на новых.
pb.wtf



Скачать ИП Пирогова через торрент https://img12.lostpic.net/2020/04/25/6e80099a341e3b69786a3deb933ece56.jpg Скачать фильм ИП Пирогова через торрент бесплантно в хорошем качестве Описание: С тех пор, как Вера Пирогова подписала контракт с сетью ресторанов «Бальзак Гурмэ», прошло полгода. Ее кондитерская, наконец, ... 9.2 10 13
Торрент: Зарегистрирован [2020-05-22 15:09] · скачан: 79 раз
Статус: √ проверено
Размер: 4.45 GB
Как cкачать? Как скачать ИП Пирогова через торрент | qTorrent

% Раздел Тема Автор DL S | L
Наши сериалы [ 6.72 GB ] ИП Пирогова / Сезон: 3 / Серии: 1-13 из 13 [2020 WEBRip 720p] bober100 Скачать
1 | 0
Наши сериалы [ 3.82 GB ] ИП Пирогова / Сезон: 3 / Серии: 1-13 из 13 [2020 WEBRip-AVC] bober100 Скачать
1 | 0
Наши сериалы [ 9.89 GB ] ИП Пирогова / Сезон: 3 / Серии: 1-13 из 13 [2020 WEBRip 1080p] bober100 Скачать
1 | 0

28-11-2019 20:33  

Отключить всю рекламу на сайте

    Дорогой пользователь! Огромная просьба, поблагодарите релизера, оцените раздачу и оставьте свои комментарий, если Вы скачали ИП Пирогова через торрент бесплатно! Внесите свою лепту в развитие PiratBit!
    Комментировать посты могут только пользователи прошедшие не сложную регистрацию
    Показать сообщения:    

    ИП Пирогова через торрент
    Скачать бесплатно ИП Пирогова
    ИП Пирогова скачать торрент
    ИП Пирогова смотреть онлайн
    Cкачать фильм ИП Пирогова бесплатно
    ИП Пирогова скачать торрент в хорошем качестве
    ИП Пирогова смотреть онлайн бесплатно в хорошем качестве


    Вы не можете начинать темы
    Вы не можете отвечать на сообщения
    Вы не можете редактировать свои сообщения
    Вы не можете удалять свои сообщения
    Вы не можете голосовать в опросах
    Вы не можете прикреплять файлы к сообщениям
    Вы можете скачивать файлы