Всегда рабочее зеркало без VPN и Proxy просто перед .vidak.icu напиши любое слово или цифру, Пример http://6f91.vidak.icu

MVO

2 сезон

2 сезон

1

1 сезон

iTunes

2 сезон

13

1 сезон

Распродажа

pack

Рекомендуем

Пиратка

30

ВАЖНО

RePack

MK11

RePack

jed

RePack

fifa19

RePack

RDR2

RePack

NEED FOR SPEED™ PAYBACK

Кинопоиск HD

6 сезон

 Острые козырьки 6 сезон

Все сериалы

все сериалы на PB.wtf

RePack

FAR CRY 5

Anonymous, нам критически не хватает 5601 руб. на оплату серверов и переферии за Апрель, помоги нам пожалуйста, вся надежда только на тебя. В благодарность мы отключим тебе всю рекламу на сайте!

×
  
Magnet ссылка

Звёздные войны: Скайуокер. Восход 3Д / Star Wars: Episode IX - The Rise of Skywalker 3D (Джей Джей Абрамс) [2019, Фантастика, боевик, приключения, BDRip 1080p, (Anamorph SideBySide)] DUB (rus, ukr) [iTunes] pb.wtf

Звёздные войны: Скайуокер. Восход 3Д через торрент pb.wtf

Размер: 15.88 GB | Добавлен: 2 года назад | Торрент скачан:83 раза
Смотреть онлайн Звёздные войны: Скайуокер. Восход 3Д | Скачать    Ребята, помогите собрать деньги на оплату серверов!!!

24-04-2020 21:42 Звёздные войны: Скайуокер. Восход 3Д Скачать торрент  

Звёздные войны: Скайуокер. Восход | Star Wars: Episode IX - The Rise of Skywalker
Год выпуска: 2019
Страна: США
Студия: Lucasfilm, Bad Robot, Digital Makeup Group
Жанр: Фантастика, фэнтези, боевик, приключения
Продолжительность: ~ 02:21:53
Перевод: Дублированный | iTunes
Субтитры: Русские (Forced, full, SDH), английские

Режиссер: Джей Джей Абрамс

rating

В ролях: Дэйзи Ридли, Адам Драйвер, Кэрри Фишер, Марк Хэмилл, Джон Бойега, Оскар Айзек, Энтони Дэниелс, Наоми Аки, Донал Глисон, Ричард Э. Грант

Описание: Фильм завершает невероятную историю семьи Скайуокеров, длящуюся уже более сорока лет, и обещает дать ответы на все загадки из предыдущих серий. Зрителя ожидают старые и новые герои, уникальные миры, увлекательные путешествия на край Галактики и грандиозный финал фантастической саги.

Качество: BDRip 1080p
Формат: MKV

Видео: MPEG-4 AVC, 1920x1080, 15.0 Mbit/s, 23.976 fps
Аудио #01: 48 kHz, AC3, 5.1, 384 Kbps | iTunes | RUS |
Аудио #02: 48 kHz, AC3, 5.1, 640 Kbps | Оригинал | ENG |
Формат 3D: Anamorph SideBySide / Горизонтальная анаморфная стереопара.
Порядок ракурсов: левый ракурс первый
скриншот  скриншот  скриншот  скриншот  скриншот  

General
Unique ID : 84584371743999606714156705497804991824 (0x3FA25B80FBFE99B6CDD634E725AC6D50)
Complete name : E:Video111Star.Wars.Episode.IX-The.Rise.of.Skywalker.2019.3D.HSBS.BDRip.1080p.seleZen.mkv
Format : Matroska
Format version : Version 4
File size : 15.9 GiB
Duration : 2 h 21 min
Overall bit rate : 16.0 Mb/s
Movie name : Star Wars Episode IX - The.Rise of Skywalker 2019 from селезень
Encoded date : UTC 2020-04-23 08:31:56
Writing application : mkvmerge v40.0.0 ('Old Town Road + Pony') 64-bit
Writing library : libebml v1.3.9 + libmatroska v1.5.2

Video
ID : 1
Format : AVC
Format/Info : Advanced Video Codec
Format profile : High@L4.1
Format settings : CABAC / 4 Ref Frames
Format settings, CABAC : Yes
Format settings, Reference : 4 frames
Codec ID : V_MPEG4/ISO/AVC
Duration : 2 h 21 min
Bit rate : 15.0 Mb/s
Width : 1 920 pixels
Height : 1 080 pixels
Display aspect ratio : 16:9
Frame rate mode : Constant
Frame rate : 23.976 (24000/1001) FPS
Color space : YUV
Chroma subsampling : 4:2:0
Bit depth : 8 bits
Scan type : Progressive
Bits/(Pixel*Frame) : 0.302
Stream size : 14.9 GiB (94%)
Title : Encoded by seleZen
Writing library : x264 core 142 r2431+42 c69a006 tMod [8-bit@all X86_64]
Encoding settings : cabac=1 / ref=4 / deblock=1:-2:-2 / analyse=0x3:0x133 / me=umh / subme=10 / psy=1 / fade_compensate=0.00 / psy_rd=1.00:0.00 / mixed_ref=1 / me_range=32 / chroma_me=1 / trellis=2 / 8x8dct=1 / cqm=0 / deadzone=21,11 / fast_pskip=0 / chroma_qp_offset=-2 / threads=24 / lookahead_threads=4 / sliced_threads=0 / nr=0 / decimate=0 / interlaced=0 / bluray_compat=0 / constrained_intra=0 / fgo=0 / bframes=8 / b_pyramid=2 / b_adapt=2 / b_bias=0 / direct=3 / weightb=1 / open_gop=0 / weightp=2 / keyint=240 / keyint_min=23 / scenecut=40 / intra_refresh=0 / rc_lookahead=50 / rc=2pass / mbtree=0 / bitrate=15000 / ratetol=1.0 / qcomp=0.60 / qpmin=0:0:0 / qpmax=51:51:51 / qpstep=4 / cplxblur=20.0 / qblur=0.5 / vbv_maxrate=50000 / vbv_bufsize=62500 / nal_hrd=none / filler=0 / ip_ratio=1.40 / pb_ratio=1.30 / aq=3:0.80 / aq-sensitivity=10.00 / aq-factor=1.00:1.00:1.00 / aq2=0 / aq3=0
Language : English
Default : Yes
Forced : No

Audio #1
ID : 2
Format : AC-3
Format/Info : Audio Coding 3
Commercial name : Dolby Digital
Codec ID : A_AC3
Duration : 2 h 21 min
Bit rate mode : Constant
Bit rate : 384 kb/s
Channel(s) : 6 channels
Channel layout : L R C LFE Ls Rs
Sampling rate : 48.0 kHz
Frame rate : 31.250 FPS (1536 SPF)
Compression mode : Lossy
Stream size : 390 MiB (2%)
Title : iTunes
Language : Russian
Service kind : Complete Main
Default : Yes
Forced : Yes

Audio #2
ID : 3
Format : AC-3
Format/Info : Audio Coding 3
Commercial name : Dolby Digital
Codec ID : A_AC3
Duration : 2 h 21 min
Bit rate mode : Constant
Bit rate : 640 kb/s
Channel(s) : 6 channels
Channel layout : L R C LFE Ls Rs
Sampling rate : 48.0 kHz
Frame rate : 31.250 FPS (1536 SPF)
Compression mode : Lossy
Stream size : 649 MiB (4%)
Title : Original
Language : English
Service kind : Complete Main
Default : No
Forced : No

Text #1
ID : 4
Format : UTF-8
Codec ID : S_TEXT/UTF8
Codec ID/Info : UTF-8 Plain Text
Duration : 1 h 37 min
Bit rate : 1 b/s
Count of elements : 10
Stream size : 938 Bytes (0%)
Title : Forced
Language : Russian
Default : Yes
Forced : Yes

Text #2
ID : 5
Format : UTF-8
Codec ID : S_TEXT/UTF8
Codec ID/Info : UTF-8 Plain Text
Duration : 2 h 17 min
Bit rate : 57 b/s
Count of elements : 1435
Stream size : 58.1 KiB (0%)
Title : Full
Language : Russian
Default : No
Forced : No

Text #3
ID : 6
Format : UTF-8
Codec ID : S_TEXT/UTF8
Codec ID/Info : UTF-8 Plain Text
Duration : 2 h 11 min
Bit rate : 73 b/s
Count of elements : 1764
Stream size : 71.1 KiB (0%)
Title : SDH
Language : Russian
Default : No
Forced : No

Text #4
ID : 7
Format : UTF-8
Codec ID : S_TEXT/UTF8
Codec ID/Info : UTF-8 Plain Text
Duration : 2 h 11 min
Bit rate : 39 b/s
Count of elements : 1460
Stream size : 37.9 KiB (0%)
Title : Full
Language : English
Default : No
Forced : No

Text #5
ID : 8
Format : UTF-8
Codec ID : S_TEXT/UTF8
Codec ID/Info : UTF-8 Plain Text
Duration : 2 h 11 min
Bit rate : 48 b/s
Count of elements : 1895
Stream size : 47.1 KiB (0%)
Title : SDH
Language : English
Default : No
Forced : No

Menu
00:00:00.000 : en:Глава 01
00:00:09.176 : en:Глава 02
00:01:40.934 : en:Глава 03
00:03:47.811 : en:Глава 04
00:06:42.902 : en:Глава 05
00:08:26.673 : en:Глава 06
00:10:04.896 : en:Глава 07
00:12:48.142 : en:Глава 08
00:13:54.000 : en:Глава 09
00:15:17.416 : en:Глава 10
00:17:13.199 : en:Глава 11
00:19:25.039 : en:Глава 12
00:21:28.579 : en:Глава 13
00:25:27.693 : en:Глава 14
00:27:14.883 : en:Глава 15
00:30:41.548 : en:Глава 16
00:35:49.064 : en:Глава 17
00:41:37.745 : en:Глава 18
00:43:15.259 : en:Глава 19
00:45:28.351 : en:Глава 20
00:48:24.568 : en:Глава 21
00:54:37.566 : en:Глава 22
00:58:49.192 : en:Глава 23
01:02:54.771 : en:Глава 24
01:06:23.104 : en:Глава 25
01:09:54.607 : en:Глава 26
01:13:07.383 : en:Глава 27
01:18:23.616 : en:Глава 28
01:23:41.225 : en:Глава 29
01:27:02.884 : en:Глава 30
01:30:23.126 : en:Глава 31
01:35:00.820 : en:Глава 32
01:38:47.880 : en:Глава 33
01:40:35.863 : en:Глава 34
01:43:03.135 : en:Глава 35
01:45:27.863 : en:Глава 36
01:48:48.188 : en:Глава 37
01:53:27.634 : en:Глава 38
01:55:30.757 : en:Глава 39
01:59:02.969 : en:Глава 40
02:01:37.749 : en:Глава 41
02:05:20.430 : en:Глава 42
02:09:42.692 : en:Глава 43
02:12:25.896 : en:Глава 44

pb.wtf



Скачать Звёздные войны: Скайуокер. Восход 3Д через торрент https://a.radikal.ru/a18/2004/8f/34b3ba9a8298.jpg Скачать, смотреть онлайн Звёздные войны: Скайуокер. Восход 3Д бесплантно в хорошем качестве Описание: Фильм завершает невероятную историю семьи Скайуокеров, длящуюся уже более сорока лет, и обещает дать ответы на все загадки из ... 10 10 3
Торрент: Зарегистрирован [2020-04-24 21:42] · скачан: 83 раз
Статус: √ проверено
Размер: 15.88 GB
Как cкачать? Как скачать Звёздные войны: Скайуокер. Восход 3Д через торрент | UTorrent

% Раздел Тема Автор DL S | L
3D Фильмы [ 28.57 GB ] Звёздные войны: Скайуокер. Восход в 3Д / Star Wars: Episode IX - The Rise of Skywalker 3D [2019 BDRip 1080p] OverUnder / Вертикальная стереопара () serega768 Скачать
2 | 0
3D Фильмы [ 14.53 GB ] Звёздные войны: Скайуокер. Восход 3Д / Star Wars: Episode IX - The Rise of Skywalker 3D [2019 BDRip 1080p ] DUB bober100 Скачать
1 | 0

28-11-2019 20:33  

Отключить всю рекламу на сайте

    Дорогой пользователь! Огромная просьба, поблагодарите релизера, оцените раздачу и оставьте свои комментарий, если Вы скачали Звёздные войны: Скайуокер. Восход 3Д через торрент бесплатно!
    Комментировать посты могут только пользователи прошедшие не сложную регистрацию
    Показать сообщения:    

    Звёздные войны: Скайуокер. Восход 3Д через торрент
    Скачать бесплатно Звёздные войны: Скайуокер. Восход 3Д
    Звёздные войны: Скайуокер. Восход 3Д скачать торрент
    Звёздные войны: Скайуокер. Восход 3Д смотреть онлайн
    Cкачать фильм Звёздные войны: Скайуокер. Восход 3Д бесплатно
    Звёздные войны: Скайуокер. Восход 3Д скачать торрент в хорошем качестве
    Звёздные войны: Скайуокер. Восход 3Д смотреть онлайн бесплатно в хорошем качестве


    Вы не можете начинать темы
    Вы не можете отвечать на сообщения
    Вы не можете редактировать свои сообщения
    Вы не можете удалять свои сообщения
    Вы не можете голосовать в опросах
    Вы не можете прикреплять файлы к сообщениям
    Вы можете скачивать файлы