2 сезон

iTunes

1 сезон

1

iTunes

iTunes

iTunes

1 сезон

RePack

30

ИГРА 18+

pack

ВАЖНО

!!Акция!!

Alien_RageХит недели

RePack

MK11
pack

Забери бонус

RePack

jed

!!Акция!!

Alien_Rage

RePack

fifa19

RePack

Assassins Creed: Odyssey

RePack

NEED FOR SPEED™ PAYBACK

4 сезон

9 сезон

Бесстыжие 9 сезон

Все сериалы

все сериалы на PB.wtf

RePack

FAR CRY 5
  

Жди меня / Серии: 1-4 из 4 (Стас Иванов) [2020, Военный, драма, мелодрама, SATRip] pb.wtf

Жди меня через торрент pb.wtf

Размер: 2.71 GB | Добавлен: 6 мес. назад | Торрент скачан:61 раз
Скачать  

25-04-2020 03:51 Жди меня Скачать торрент  

Жди меня
Год выпуска: 2020
Страна: Россия
Жанр: Военный, драма, мелодрама
Продолжительность: ~ 00:50:00 серия
Перевод: Не требуется
Субтитры: отсутствуют

Режиссер: Стас Иванов



В ролях: Валерия Ланская, Алексей Демидов, Артур Иванов, Виталий Коваленко, Оксана Базилевич, Алексей Гришин, Юрий Круглов, Карен Мартиросян, Надежда Игошина, Евгений Санников, Максим Виноградов (II), Виталий Кудрявцев, Иван Викулов, Арсений Робак, Дмитрий Подадаев, Алдар Когаев, Владимир Терещенко, Лев Малишава, Александр Аноприков, Алевтина Тукан, Анна Перелешина, Александр Шатохин, Константин Новиков, Константин Фисенко, Алексей Петров (VIII), Леонид Городецкий, Михаил Бранд, Леонид Серебренников, Дмитрий Лавров (III), Анастасия Масленникова, Алексей Петров (III), Елизавета Лотова, Ян Алабушев, Роман Эльбов, Сергей Копылов, Александр Гох, Михаил Коновалов, Илья Шарипов, Денис Пир

Описание: Фронтовая бригада артистов не первый год выступает на передовой. Недавно ее ряды пополнила Шурочка, актриса из тылового театра. Первое же выступление перед бойцами приносит Шурочке успех, причем не только зрительский – в нее с первого взгляда влюбляется полковник Громов. Его внимание вдохновляет Шурочку, однако скоро она встречает молодого разведчика, лейтенанта Кольцова. Девушке предстоит сделать непростой выбор между двумя героями войны – бравым казаком Громовым и ленинградским поэтом Кольцовым.

Качество: SATRip
Формат: AVI

Видео: XviD, 720x400, ~ 1700 Кбит/с, 0.236 bit/pixel, 25 Кадр/с
Аудио: МР3, 48,0 КГц, 2 ch, 192 Кбит/с
скриншот  скриншот  скриншот  скриншот  скриншот  

Общее
Полное имя : D:\Жди.Меня.XviD.2018.SATRip.7turza™\01.Жди.Меня.7turza™.avi
Формат : AVI
Формат/Информация : Audio Video Interleave
Размер файла : 703 Мбайт
Продолжительность : 51 м. 41 с.
Общий поток : 1902 Кбит/сек
Название фильма : S01 E01 # from 7turza #
Программа кодирования : Lavf58.29.100

Видео
Идентификатор : 0
Формат : MPEG-4 Visual
Профиль формата : Advanced Simple@L5
Настройки формата : BVOP1
Параметр BVOP формата : 1
Параметр QPel формата : Нет
Параметр GMC формата : Без точки перехода
Параметр матрицы формата : Default (H.263)
Идентификатор кодека : XVID
Идентификатор кодека/Подсказка : XviD
Продолжительность : 51 м. 41 с.
Битрейт : 1697 Кбит/сек
Ширина : 720 пикселей
Высота : 400 пикселей
Соотношение сторон : 16:9
Частота кадров : 25,000 кадров/сек
Цветовое пространство : YUV
Субдискретизация насыщенности : 4:2:0
Битовая глубина : 8 бит
Тип развёртки : Прогрессивная
Метод сжатия : С потерями
Бит/(Пиксели*Кадры) : 0.236
Размер потока : 627 Мбайт (89%)
Библиотека кодирования : XviD 67

Аудио
Идентификатор : 1
Формат : MPEG Audio
Версия формата : Version 1
Профиль формата : Layer 3
Настройки формата : Joint stereo / MS Stereo
Идентификатор кодека : 55
Идентификатор кодека/Подсказка : MP3
Продолжительность : 51 м. 41 с.
Вид битрейта : Постоянный
Битрейт : 192 Кбит/сек
Каналы : 2 канала
Частота : 48,0 КГц
Размер потока : 71,0 Мбайт (10%)
Выравнивание : Соединение по промежуткам
Продолжительность промежутка : 24 мс. (0,60 видеокадр)
Библиотека кодирования : LAME3.100ªªªªªª

Внимание! Раздача ведётся путём добавления новых серий; при каждом добавлении создаётся новый торрент.
Чтобы начать докачку новой серии, пользователям необходимо сделать следующее:
1. Остановить скачивание;
2. Удалить старый торрент у себя из клиента (старые серии удалять не надо);
3. Скачать новый торрент и запустить его у себя в клиенте вместо старого, при этом указать клиенту путь в старую папку куда и должно происходить скачивание новых серий. Ваш клиент при этом должен произвести хеширование (проверку) старой папки и будет докачивать только те серии, которых у вас ещё нет. Старые серии при этом не удаляются, а продолжают раздаваться! Eсли вы уже удалили старые серии, то предотвратить повторную закачку старых серий можно, отжав галочку в соответствующих местах при запуске нового торрента.
pb.wtf



Скачать Жди меня через торрент https://a.radikal.ru/a18/2004/56/0ac196e88b8f.jpg Скачать фильм Жди меня через торрент бесплантно в хорошем качестве Описание: Фронтовая бригада артистов не первый год выступает на передовой. Недавно ее ряды пополнила Шурочка, актриса из тылового театра. ... 9.9 10 10
Торрент: Зарегистрирован [2020-04-25 06:08] · скачан: 61 раз
Статус: √ проверено
Размер: 2.71 GB
Как cкачать? Как скачать Жди меня через торрент | qTorrent

% Раздел Тема Автор DL S | L
Наши сериалы [ 3.13 GB ] Жди меня / Серии: 1-4 из 4 [2020 Военный HDTVRip-AVC] bober100 Скачать
1 | 0
Наши сериалы [ 2.61 GB ] Жди меня / Серии: 1-4 из 4 [2020 Военный WEB-DLRip] bober100 Скачать
1 | 0
Наши сериалы [ 7.04 GB ] Жди меня / Серии: 1-4 из 4 [2020 Военный WEB-DL 1080p] bober100 Скачать
1 | 0
Наши сериалы [ 2.57 GB ] Жди меня / Серии: 1-4 из 4 [2020 Военный HDTVRip] bober100 Скачать
1 | 0
Наши сериалы [ 8.36 GB ] Жди меня / Серии: 1-4 из 4 [2020 Военный HDTV 1080i] bober100 Скачать
4 | 0
Наши сериалы [ 2.42 GB ] Жди меня / Серии: 1-4 из 4 [2020 военный SATRip-AVC] aleksan55 Скачать
1 | 0

28-11-2019 20:33  

Отключить всю рекламу на сайте

    Дорогой пользователь! Огромная просьба, поблагодарите релизера, оцените раздачу и оставьте свои комментарий, если Вы скачали Жди меня через торрент бесплатно! Внесите свою лепту в развитие PiratBit!
    Комментировать посты могут только пользователи прошедшие не сложную регистрацию
    Показать сообщения:    

    Жди меня через торрент
    Скачать бесплатно Жди меня
    Жди меня скачать торрент
    Жди меня смотреть онлайн
    Cкачать фильм Жди меня бесплатно
    Жди меня скачать торрент в хорошем качестве
    Жди меня смотреть онлайн бесплатно в хорошем качестве


    Вы не можете начинать темы
    Вы не можете отвечать на сообщения
    Вы не можете редактировать свои сообщения
    Вы не можете удалять свои сообщения
    Вы не можете голосовать в опросах
    Вы не можете прикреплять файлы к сообщениям
    Вы можете скачивать файлы