Ссылка на приватное зеркало нашего сайта всего за 1$. Внимание количество ограничено!!!

2 сезон

iTunes

1 сезон

1

iTunes

iTunes

iTunes

1 сезон

RePack

30

ИГРА 18+

pack

ВАЖНО

!!Акция!!

Alien_RageХит недели

RePack

MK11
pack

Забери бонус

RePack

jed

!!Акция!!

Alien_Rage

RePack

fifa19

RePack

Assassins Creed: Odyssey

RePack

NEED FOR SPEED™ PAYBACK

4 сезон

9 сезон

Бесстыжие 9 сезон

Все сериалы

все сериалы на PB.wtf

RePack

FAR CRY 5
  

Сто лет пути / Серии: 1-4 из 4 (Пётр Амелин) [2020, Детектив, криминал, SATRip] pb.wtf

Сто лет пути через торрент pb.wtf

Размер: 2.38 GB | Добавлен: 6 мес. назад | Торрент скачан:74 раза
Скачать  

25-04-2020 09:31 Сто лет пути Скачать торрент  

Сто лет пути
Год выпуска: 2020
Страна: Россия
Жанр: Детектив, криминал
Продолжительность: ~ 00:45:00
Перевод: Не требуется
Субтитры: отсутствуют

Режиссер: Пётр Амелин



В ролях: Павел Трубинер, Полина Сыркина, Александр Строев, Кирилл Балобан, Михаил Елисеев, Владимир Петров (VIII), Евгений Капитонов, Василий Гузов, Вера Карпова, Олег Попов (II), Валентина Кособуцкая, Дмитрий Сутырин, Виктор Выбриенко, Евгения Лыкова, Виталий Кононов, Роман Грибков, Владимир Глазков, Сергей Гамов, Олег Метелев, Андрей Некрасов (II), Андрей Аксёнов, Анна Королева (II), Роман Михащук, Виктор Граков, Павел Сергиенко, Максим Гибалов, Маргарита Худзинская, Сергей Кореньков, Михаил Годин, Ирина Владимирская, Полина Бахаревская, Сергей Жукович, Моисей Берсон, Алиса Журавская, Никита Барсуков, Галина Сидорова, Екатерина Карякина, Александра Стрелина, Дмитрий Русаков, Демьян Олечкин, Николай Саяпин, Александр Володин (IV), Геннадий Кабак, Людмила Липатова, Мария Бирюзова, Фёдор Коновалов, Валерий Сидоренко, Нина Жернакова, Ярослав Мирошин, Денис Нечаев, Томаш Карпински, Денис Ташлыков

Описание: По мотивам одноимённого романа Татьяны Устиновой. Историка Дмитрия Шаховского приглашают помочь в расследовании преступления, произошедшего в старинном особняке, отданном под музей. Убит директор музея. Рядом с телом найдены старинная чашка и письмо, написанное более ста лет назад. Чтобы понять, что произошло, Шаховскому придётся восстановить события вековой давности, разобраться в хитросплетениях судеб, а также в странных и загадочных совпадениях. Впрочем, быть может, это и не совпадения вовсе?

Качество: SATRip
Формат: AVI

Видео: XviD, 720x400, ~ 1700 Кбит/с, 0.236 bit/pixel, 25 кадр/с
Аудио: МР3, 48,0 КГц, 2 ch, 192 Кбит/с
скриншот  скриншот  скриншот  скриншот  скриншот  

Общее
Полное имя : D:\Сто.Лет.Пути.XviD.2020.SATRip.7turza™\01.Сто.Лет.Пути.7turza™.avi
Формат : AVI
Формат/Информация : Audio Video Interleave
Размер файла : 595 Мбайт
Продолжительность : 43 м. 44 с.
Общий поток : 1901 Кбит/сек
Название фильма : S01 E01 # from 7turza #
Программа кодирования : Lavf58.29.100

Видео
Идентификатор : 0
Формат : MPEG-4 Visual
Профиль формата : Advanced Simple@L5
Настройки формата : BVOP1
Параметр BVOP формата : 1
Параметр QPel формата : Нет
Параметр GMC формата : Без точки перехода
Параметр матрицы формата : Default (H.263)
Идентификатор кодека : XVID
Идентификатор кодека/Подсказка : XviD
Продолжительность : 43 м. 44 с.
Битрейт : 1696 Кбит/сек
Ширина : 720 пикселей
Высота : 400 пикселей
Соотношение сторон : 16:9
Частота кадров : 25,000 кадров/сек
Цветовое пространство : YUV
Субдискретизация насыщенности : 4:2:0
Битовая глубина : 8 бит
Тип развёртки : Прогрессивная
Метод сжатия : С потерями
Бит/(Пиксели*Кадры) : 0.236
Размер потока : 531 Мбайт (89%)
Библиотека кодирования : XviD 67

Аудио
Идентификатор : 1
Формат : MPEG Audio
Версия формата : Version 1
Профиль формата : Layer 3
Настройки формата : Joint stereo
Идентификатор кодека : 55
Идентификатор кодека/Подсказка : MP3
Продолжительность : 43 м. 44 с.
Вид битрейта : Постоянный
Битрейт : 192 Кбит/сек
Каналы : 2 канала
Частота : 48,0 КГц
Метод сжатия : С потерями
Размер потока : 60,1 Мбайт (10%)
Выравнивание : Соединение по промежуткам
Продолжительность промежутка : 24 мс. (0,60 видеокадр)
Библиотека кодирования : LAMEªi‰¹ÈÄDA%»¨èb¤

Внимание! Раздача ведётся путём добавления новых серий; при каждом добавлении создаётся новый торрент.
Чтобы начать докачку новой серии, пользователям необходимо сделать следующее:
1. Остановить скачивание;
2. Удалить старый торрент у себя из клиента (старые серии удалять не надо);
3. Скачать новый торрент и запустить его у себя в клиенте вместо старого, при этом указать клиенту путь в старую папку куда и должно происходить скачивание новых серий. Ваш клиент при этом должен произвести хеширование (проверку) старой папки и будет докачивать только те серии, которых у вас ещё нет. Старые серии при этом не удаляются, а продолжают раздаваться! Eсли вы уже удалили старые серии, то предотвратить повторную закачку старых серий можно, отжав галочку в соответствующих местах при запуске нового торрента.
pb.wtf



Скачать Сто лет пути через торрент https://c.radikal.ru/c06/2004/92/de97783de321.jpg Скачать фильм Сто лет пути через торрент бесплантно в хорошем качестве Описание: По мотивам одноимённого романа Татьяны Устиновой. Историка Дмитрия Шаховского приглашают помочь в расследовании преступления, ... 10 10 9
Торрент: Зарегистрирован [2020-04-25 11:48] · скачан: 74 раз
Статус: √ проверено
Размер: 2.38 GB
Как cкачать? Как скачать Сто лет пути через торрент | qTorrent

% Раздел Тема Автор DL S | L
Наши сериалы [ 2.3 GB ] Сто лет пути / Серии: 1-4 из 4 [2020 WEB-DLRip-AVC] bober100 Скачать
1 | 0
Наши сериалы [ 2.31 GB ] Сто лет пути / Серии: 1-4 из 4 [2020 WEB-DLRip] bober100 Скачать
1 | 0
Наши сериалы [ 2.13 GB ] Сто лет пути / Серии: 1-4 из 4 [2020 экранизация SATRip-AVC] aleksan55 Скачать
2 | 0

28-11-2019 20:33  

Отключить всю рекламу на сайте

    Дорогой пользователь! Огромная просьба, поблагодарите релизера, оцените раздачу и оставьте свои комментарий, если Вы скачали Сто лет пути через торрент бесплатно! Внесите свою лепту в развитие PiratBit!
    Комментировать посты могут только пользователи прошедшие не сложную регистрацию
    Показать сообщения:    

    Сто лет пути через торрент
    Скачать бесплатно Сто лет пути
    Сто лет пути скачать торрент
    Сто лет пути смотреть онлайн
    Cкачать фильм Сто лет пути бесплатно
    Сто лет пути скачать торрент в хорошем качестве
    Сто лет пути смотреть онлайн бесплатно в хорошем качестве


    Вы не можете начинать темы
    Вы не можете отвечать на сообщения
    Вы не можете редактировать свои сообщения
    Вы не можете удалять свои сообщения
    Вы не можете голосовать в опросах
    Вы не можете прикреплять файлы к сообщениям
    Вы можете скачивать файлы