Anonymous, доброй ночи, присоединяйтесь к нам в Telegram!, здесь всегда актуальный адрес сайта, оперативная поддержка и многое другое!

>

5.6

iTunes

7.4

MVO

5.7

MVO

1

7.7

1 сезон

6.8

iTunes

7.3

1 сезон

13

6.7

1 сезон

8.3

RePack

30

ULTIMATE

pack

9.9

Лицензия

ВАЖНО

ИГРА 18+

pack

7.3

RePack

MK11

7.7

RePack

jed

7.8

RePack

fifa19

8.5

RePack

RDR2

RePack

NEED FOR SPEED™ PAYBACK

4 сезон

9 сезон

Бесстыжие 9 сезон

Все сериалы

все сериалы на PB.wtf

RePack

FAR CRY 5

Anonymous, доброй ночи, мы катастрофически не успеваем собрать деньги на оплату серверов, помогите нам пожалуйста 5,10,15р., для нас важна любая помощь . В качестве благодарности мы отключим Вам всю рекламу на сайте (укажите свой ник в строку Ваше имя)!

×
  
Magnet ссылка

Плохие парни: Трилогия / Bad Boys: Trilogy (Майкл Бэй, Адиль Эль Арби, Билал Фалла ) [1995, 2003, 2020 США, Мексика , Боевик, триллер, комедия, криминал, BDRip 720p / 60fps ,DUB] от R.G. HD-Films pb.wtf

Плохие парни: Трилогия через торрент pb.wtf

Раздают: 1 [ 3 MB/s ] Качают: 2 [ 0 KB/s ]
Размер: 14.51 GB | Добавлен: 1 год 5 мес. назад | Торрент скачан:35 раз
Смотреть онлайн Плохие парни: Трилогия | Скачать    Ребята, помогите собрать деньги на оплату серверов!!!

25-04-2020 11:33 Плохие парни: Трилогия Скачать торрент  

Плохие парни: Трилогия / Bad Boys: Trilogy
Плохие парни / Bad Boys
Год выпуска: : 1995
Страна: : США
Жанр: : боевик, приключения, комедия
Продолжительность: 01:58:51
Перевод: Дубляж
Субтитры: Russian, English

Режиссер: Майкл Бэй

Бюджет: $19 000 000
Премьера в мире: 6 апреля 1995

rating

В ролях: Мартин Лоуренс, Уилл Смит, Теа Леони, Чеки Карио, Тереза Рэндл, Мардж Хелгенбергер, Нестор Серрано, Хулио Оскар Мекозо, Саверио Гуэрра


Сюжет фильма: Из полиции похищены конфискованные наркотики на сумму более 100 миллионов долларов. Двое чернокожих детективов Майк и Лэрри , прекрасно знающие науку выживания на "грязных улицах", получают это дело под личную ответственность.

Качество видео: BDRip 720p / 60 FPS
Формат: MKV
Видео кодек: H.264
Аудио кодек: AC3
Видео : x264, 1280 x 688 ( 1,85:1 ), 5093 kbps, 60,000 fps, ( 0.096 bpp)
Аудио : Русский, AC-3, 48.0 KHz, 6 ch, 384 Kbps
Релиз от:

скриншот   скриншот   скриншот   скриншот   скриншот   скриншот  Автор рипа: slaventi-69
x264 [info]: frame I:2802 Avg QP:18.55 size: 80282
x264 [info]: frame P:104025 Avg QP:19.64 size: 23517
x264 [info]: frame B:320551 Avg QP:21.93 size: 5813
x264 [info]: consecutive B-frames: 2.5% 4.1% 9.7% 13.5% 63.9% 6.3%


Общее
Уникальный идентификатор : 231984206820383344786429978370825468999 (0xAE8688763A98F4AA0DB34F826D2F3C47)
Полное имя : F:\Bad Boys Trilogy\Bad.Boys.(1995).BDRip.720p.(60 Fps).mkv
Формат : Matroska
Версия формата : Version 4
Размер файла : 4,55 Гбайт
Продолжительность : 1 ч. 58 м.
Общий поток : 5481 Кбит/сек
Название фильма : Плохие парни / Bad Boys (1995) BDRip 720p (60 Fps)
Дата кодирования : UTC 2020-04-24 12:21:21
Программа кодирования : mkvmerge v42.0.0 ('Overtime') 64-bit
Библиотека кодирования : libebml v1.3.10 + libmatroska v1.5.2

Видео
Идентификатор : 1
Формат : AVC
Формат/Информация : Advanced Video Codec
Профиль формата : High@L4.1
Настройки формата : CABAC / 8 Ref Frames
Параметр CABAC формата : Да
Параметр RefFrames формата : 8 кадров
Идентификатор кодека : V_MPEG4/ISO/AVC
Продолжительность : 1 ч. 58 м.
Битрейт : 5093 Кбит/сек
Ширина : 1280 пикселей
Высота : 688 пикселей
Соотношение сторон : 1,85:1
Режим частоты кадров : Постоянный
Частота кадров : 60,000 кадров/сек
Цветовое пространство : YUV
Субдискретизация насыщенности : 4:2:0
Битовая глубина : 8 бит
Тип развёртки : Прогрессивная
Бит/(Пиксели*Кадры) : 0.096
Размер потока : 4,22 Гбайт (93%)
Заголовок : slaventi-69 ( R.G. HD-Films | 60 fps )
Библиотека кодирования : x264 core 130 r2273 b3065e6
Настройки программы : cabac=1 / ref=8 / deblock=1:-3:-3 / analyse=0x3:0x133 / me=umh / subme=9 / psy=1 / psy_rd=1.00:0.00 / mixed_ref=1 / me_range=28 / chroma_me=1 / trellis=2 / 8x8dct=1 / cqm=0 / deadzone=21,11 / fast_pskip=0 / chroma_qp_offset=-2 / threads=4 / lookahead_threads=1 / sliced_threads=0 / nr=0 / decimate=1 / interlaced=0 / bluray_compat=0 / constrained_intra=0 / bframes=5 / b_pyramid=2 / b_adapt=2 / b_bias=0 / direct=3 / weightb=1 / open_gop=0 / weightp=2 / keyint=250 / keyint_min=23 / scenecut=40 / intra_refresh=0 / rc=crf / mbtree=0 / crf=18.7 / qcomp=0.60 / qpmin=0 / qpmax=69 / qpstep=4 / ip_ratio=1.40 / pb_ratio=1.30 / aq=1:1.00
Язык : English
Default : Да
Forced : Нет

Аудио
Идентификатор : 2
Формат : AC-3
Формат/Информация : Audio Coding 3
Коммерческое название : Dolby Digital
Идентификатор кодека : A_AC3
Продолжительность : 1 ч. 58 м.
Вид битрейта : Постоянный
Битрейт : 384 Кбит/сек
Каналы : 6 каналов
Channel layout : L R C LFE Ls Rs
Частота : 48,0 КГц
Частота кадров : 31,250 кадров/сек (1536 SPF)
Битовая глубина : 16 бит
Метод сжатия : С потерями
Размер потока : 326 Мбайт (7%)
Заголовок : Dub
Язык : Russian
ServiceKind/String : Complete Main
Default : Да
Forced : Нет

Текст #1
Идентификатор : 3
Формат : UTF-8
Идентификатор кодека : S_TEXT/UTF8
Идентификатор кодека/Информация : UTF-8 Plain Text
Продолжительность : 1 ч. 54 м.
Битрейт : 96 бит/сек
ElementCount : 1733
Размер потока : 80,4 Кбайт (0%)
Заголовок : Full
Язык : Russian
Default : Да
Forced : Нет

Текст #2
Идентификатор : 4
Формат : UTF-8
Идентификатор кодека : S_TEXT/UTF8
Идентификатор кодека/Информация : UTF-8 Plain Text
Продолжительность : 1 ч. 54 м.
Битрейт : 66 бит/сек
ElementCount : 1656
Размер потока : 56,0 Кбайт (0%)
Заголовок : Full
Язык : English
Default : Нет
Forced : Нет

Текст #3
Идентификатор : 5
Формат : UTF-8
Идентификатор кодека : S_TEXT/UTF8
Идентификатор кодека/Информация : UTF-8 Plain Text
Продолжительность : 1 ч. 55 м.
Битрейт : 81 бит/сек
ElementCount : 1806
Размер потока : 68,8 Кбайт (0%)
Заголовок : SDH
Язык : English
Default : Нет
Forced : Нет

Меню
00:00:00.000 : en:Start
00:05:07.473 : en:Heroin Robbery
00:12:01.971 : en:Peeking & Entering
00:17:38.098 : en:Rich Cop, Poor Cop
00:23:33.203 : en:Eddie's Surprise Party
00:31:31.764 : en:Julie's Escape
00:41:09.133 : en:Two Conversations
00:47:35.310 : en:At Lois'
00:54:37.357 : en:Julie Asks for Mike
01:04:05.675 : en:In Julie's Apartment
01:13:49.800 : en:Making Their Getaway
01:20:21.483 : en:Mike's Place
01:27:58.523 : en:Real Bad Headache
01:34:54.271 : en:Problems in the Lab
01:43:09.308 : en:Julie Meets "Marcus"
01:50:51.353 : en:In the Men's Room

Просьба к переливающим на другие сайты, в оформлении указывайте пожалуйста авторство группы R.G. HD-Films
Плохие парни 2 / Bad Boys II
Год выпуска: : 2003
Страна: : США
Жанр: : боевик, триллер, комедия, криминал
Продолжительность: 02:26:44
Перевод: Дубляж
Субтитры: Russian, English

Режиссер: Майкл Бэй

Бюджет: $130 000 000
Премьера в мире: 9 июля 2003

rating

В ролях: Уилл Смит, Мартин Лоуренс, Гэбриэл Юнион, Хорди Молья, Петер Стормаре, Тереза Рэндл, Джо Пантольяно, Майкл Шеннон, Джон Седа, Юл Васкес


Сюжет фильма: Детективы отдела по борьбе с незаконным оборотом наркотиков Майк Лоури и Маркус Бэрнетт получают задание расследовать схему доставки нового наркотика в Майами. Это расследование выводит их на искусный заговор, сплетенный местным наркобароном с целью поставить под контроль всю торговлю наркотиками в городе.

По чистой случайности про эти амбициозные планы узнают и остальные игроки нелегального рынка, в результате чего вспыхивает настоящая война. Несмотря на это, Майку и Маркусу удается успешно справляться с натиском наркомафии и сажать дилеров за решетку. Но ситуация начинает выходить из-под контроля, когда Майк не на шутку увлекается сестрой Маркуса, Сидни.

Торжество закона висит на волоске — ведь вместо выполнения спецзаданий детективы начинают выяснять отношения между собой…


Качество видео: BDRip 720p / 60 FPS
Формат: MKV
Видео кодек: H.264
Аудио кодек: AC3
Видео : x264, 1280 x 536 ( 2,40:1 ), 4893 kbps, 60,000 fps, ( 0.119 bpp)
Аудио : Русский, AC-3, 48.0 KHz, 6 ch, 384 Kbps
Релиз от:

скриншот   скриншот   скриншот   скриншот   скриншот   скриншот  Автор рипа: slaventi-69
Общее
Уникальный идентификатор : 337272389097776764453647838649411766009 (0xFDBC4CA2B73213B65A0BE744836906F9)
Полное имя : F:\Bad Boys Trilogy\Bad.Boys.2.(2003).BDRip.720p.(60 Fps).mkv
Формат : Matroska
Версия формата : Version 4
Размер файла : 5,41 Гбайт
Продолжительность : 2 ч. 26 м.
Общий поток : 5281 Кбит/сек
Название фильма : Плохие парни 2 / Bad Boys II (2003) BDRip 720p (60 Fps)
Дата кодирования : UTC 2020-04-24 12:31:33
Программа кодирования : mkvmerge v42.0.0 ('Overtime') 64-bit
Библиотека кодирования : libebml v1.3.10 + libmatroska v1.5.2

Видео
Идентификатор : 1
Формат : AVC
Формат/Информация : Advanced Video Codec
Профиль формата : High@L4.1
Настройки формата : CABAC / 9 Ref Frames
Параметр CABAC формата : Да
Параметр RefFrames формата : 9 кадров
Идентификатор кодека : V_MPEG4/ISO/AVC
Продолжительность : 2 ч. 26 м.
Битрейт : 4893 Кбит/сек
Ширина : 1280 пикселей
Высота : 536 пикселей
Соотношение сторон : 2,40:1
Режим частоты кадров : Постоянный
Частота кадров : 60,000 кадров/сек
Цветовое пространство : YUV
Субдискретизация насыщенности : 4:2:0
Битовая глубина : 8 бит
Тип развёртки : Прогрессивная
Бит/(Пиксели*Кадры) : 0.119
Размер потока : 5,01 Гбайт (93%)
Заголовок : slaventi-69 ( R.G. HD-Films | 60 fps )
Библиотека кодирования : x264 core 130 r2273 b3065e6
Настройки программы : cabac=1 / ref=9 / deblock=1:-1:-1 / analyse=0x3:0x133 / me=umh / subme=9 / psy=1 / psy_rd=1.00:0.00 / mixed_ref=1 / me_range=28 / chroma_me=1 / trellis=2 / 8x8dct=1 / cqm=0 / deadzone=21,11 / fast_pskip=0 / chroma_qp_offset=-2 / threads=6 / lookahead_threads=1 / sliced_threads=0 / nr=0 / decimate=1 / interlaced=0 / bluray_compat=0 / constrained_intra=0 / bframes=5 / b_pyramid=2 / b_adapt=2 / b_bias=0 / direct=3 / weightb=1 / open_gop=0 / weightp=2 / keyint=250 / keyint_min=23 / scenecut=40 / intra_refresh=0 / rc=crf / mbtree=0 / crf=19.0 / qcomp=0.60 / qpmin=0 / qpmax=69 / qpstep=4 / ip_ratio=1.40 / pb_ratio=1.30 / aq=1:1.00
Язык : English
Default : Да
Forced : Нет

Аудио
Идентификатор : 2
Формат : AC-3
Формат/Информация : Audio Coding 3
Коммерческое название : Dolby Digital
Идентификатор кодека : A_AC3
Продолжительность : 2 ч. 26 м.
Вид битрейта : Постоянный
Битрейт : 384 Кбит/сек
Каналы : 6 каналов
Channel layout : L R C LFE Ls Rs
Частота : 48,0 КГц
Частота кадров : 31,250 кадров/сек (1536 SPF)
Битовая глубина : 16 бит
Метод сжатия : С потерями
Размер потока : 403 Мбайт (7%)
Заголовок : Dub
Язык : Russian
ServiceKind/String : Complete Main
Default : Да
Forced : Нет

Текст #1
Идентификатор : 3
Формат : UTF-8
Идентификатор кодека : S_TEXT/UTF8
Идентификатор кодека/Информация : UTF-8 Plain Text
Продолжительность : 2 ч. 20 м.
Битрейт : 108 бит/сек
ElementCount : 1947
Размер потока : 111 Кбайт (0%)
Заголовок : Full
Язык : Russian
Default : Да
Forced : Нет

Текст #2
Идентификатор : 4
Формат : UTF-8
Идентификатор кодека : S_TEXT/UTF8
Идентификатор кодека/Информация : UTF-8 Plain Text
Продолжительность : 2 ч. 20 м.
Битрейт : 69 бит/сек
ElementCount : 1916
Размер потока : 71,0 Кбайт (0%)
Заголовок : Full
Язык : English
Default : Нет
Forced : Нет

Текст #3
Идентификатор : 5
Формат : UTF-8
Идентификатор кодека : S_TEXT/UTF8
Идентификатор кодека/Информация : UTF-8 Plain Text
Продолжительность : 2 ч. 25 м.
Битрейт : 77 бит/сек
ElementCount : 2258
Размер потока : 82,5 Кбайт (0%)
Заголовок : SDH
Язык : English
Default : Нет
Forced : Нет

Меню
00:00:00.000 : en:Chapter 01
00:11:04.497 : en:Chapter 02
00:21:54.396 : en:Chapter 03
00:39:54.767 : en:Chapter 04
00:45:27.683 : en:Chapter 05
00:53:27.788 : en:Chapter 06
00:59:01.246 : en:Chapter 07
01:06:26.065 : en:Chapter 08
01:11:28.618 : en:Chapter 09
01:17:53.168 : en:Chapter 10
01:30:27.130 : en:Chapter 11
01:37:38.227 : en:Chapter 12
01:45:53.764 : en:Chapter 13
01:56:46.625 : en:Chapter 14
02:05:07.583 : en:Chapter 15
02:16:06.700 : en:Chapter 16

Просьба к переливающим на другие сайты, в оформлении указывайте пожалуйста авторство группы R.G. HD-Films
Плохие парни навсегда / Bad Boys for Life
Год выпуска: : 2020
Страна: : США, Мексика
Жанр: : Боевик, триллер, комедия, криминал
Продолжительность: 02:03:58
Перевод: Дубляж ( iTunes )
Субтитры: Russian ( форсированные )

Режиссер: Адиль Эль Арби, Билал Фалла

Бюджет: $90 000 000
Премьера в мире: 23 января 2020

rating

В ролях: Уилл Смит, Мартин Лоуренс, Александр Людвиг, Ванесса Энн Хадженс, Майкл Бэй, Джо Пантолиано, Паола Нуньес, Чарльз Мелтон, Кейт дель Кастильо, Ники Джем, Джейкоб Скипио


Сюжет фильма: Детективы Майк Лоури и Маркус Бёрнетт снова в деле! Правда, их отстраняют от всех операций, но разве отчаянных друзей когда-нибудь что-либо останавливало? Ведь на этот раз на Майка открывает охоту некто из его прошлой жизни. Так что парням придется отжечь по полной!

Качество видео: BDRip 720p / 60 FPS
Формат: MKV
Видео кодек: H.264
Аудио кодек: AC3
Видео : x264, 1280 x 536 ( 2,40:1 ), 4877 kbps, 60,000 fps, ( 0.118 bpp)
Аудио : Русский, AC-3, 48.0 KHz, 6 ch, 384 Kbps
Релиз от:

скриншот   скриншот   скриншот   скриншот   скриншот   скриншот  Автор рипа: slaventi-69
Общее
Уникальный идентификатор : 48037446021664696290799087085665579500 (0x2423ACF273539B16CE4ADDD77FFAF1EC)
Полное имя : F:\Bad Boys Trilogy\Bad.Boys.for.Life.(2020).BDRip.720p.(60 Fps).mkv
Формат : Matroska
Версия формата : Version 4
Размер файла : 4,55 Гбайт
Продолжительность : 2 ч. 3 м.
Общий поток : 5261 Кбит/сек
Название фильма : Плохие парни навсегда / Bad Boys for Life (2020) BDRip 720p (60 Fps)
Дата кодирования : UTC 2020-04-24 12:42:55
Программа кодирования : mkvmerge v42.0.0 ('Overtime') 64-bit
Библиотека кодирования : libebml v1.3.10 + libmatroska v1.5.2

Видео
Идентификатор : 1
Формат : AVC
Формат/Информация : Advanced Video Codec
Профиль формата : High@L4.1
Настройки формата : CABAC / 8 Ref Frames
Параметр CABAC формата : Да
Параметр RefFrames формата : 8 кадров
Идентификатор кодека : V_MPEG4/ISO/AVC
Продолжительность : 2 ч. 3 м.
Битрейт : 4877 Кбит/сек
Ширина : 1280 пикселей
Высота : 536 пикселей
Соотношение сторон : 2,40:1
Режим частоты кадров : Постоянный
Частота кадров : 60,000 кадров/сек
Цветовое пространство : YUV
Субдискретизация насыщенности : 4:2:0
Битовая глубина : 8 бит
Тип развёртки : Прогрессивная
Бит/(Пиксели*Кадры) : 0.118
Размер потока : 4,22 Гбайт (93%)
Заголовок : slaventi-69 ( R.G. HD-Films | 60 fps )
Библиотека кодирования : x264 core 130 r2273 b3065e6
Настройки программы : cabac=1 / ref=8 / deblock=1:-1:-1 / analyse=0x3:0x133 / me=umh / subme=9 / psy=1 / psy_rd=1.00:0.00 / mixed_ref=1 / me_range=26 / chroma_me=1 / trellis=2 / 8x8dct=1 / cqm=0 / deadzone=21,11 / fast_pskip=0 / chroma_qp_offset=-2 / threads=6 / lookahead_threads=1 / sliced_threads=0 / nr=0 / decimate=1 / interlaced=0 / bluray_compat=0 / constrained_intra=0 / bframes=5 / b_pyramid=2 / b_adapt=2 / b_bias=0 / direct=3 / weightb=1 / open_gop=0 / weightp=2 / keyint=250 / keyint_min=23 / scenecut=40 / intra_refresh=0 / rc=crf / mbtree=0 / crf=17.0 / qcomp=0.60 / qpmin=0 / qpmax=69 / qpstep=4 / ip_ratio=1.40 / pb_ratio=1.30 / aq=1:1.00
Язык : English
Default : Да
Forced : Нет

Аудио
Идентификатор : 2
Формат : AC-3
Формат/Информация : Audio Coding 3
Коммерческое название : Dolby Digital
Идентификатор кодека : A_AC3
Продолжительность : 2 ч. 3 м.
Вид битрейта : Постоянный
Битрейт : 384 Кбит/сек
Каналы : 6 каналов
Channel layout : L R C LFE Ls Rs
Частота : 48,0 КГц
Частота кадров : 31,250 кадров/сек (1536 SPF)
Битовая глубина : 16 бит
Метод сжатия : С потерями
Размер потока : 340 Мбайт (7%)
Заголовок : Dub - iTunes
Язык : Russian
ServiceKind/String : Complete Main
Default : Да
Forced : Нет

Текст
Идентификатор : 3
Формат : UTF-8
Идентификатор кодека : S_TEXT/UTF8
Идентификатор кодека/Информация : UTF-8 Plain Text
Продолжительность : 2 ч. 0 м.
Битрейт : 4 бит/сек
ElementCount : 91
Размер потока : 4,27 Кбайт (0%)
Заголовок : русские, форсированные
Язык : Russian
Default : Да
Forced : Да

Просьба к переливающим на другие сайты, в оформлении указывайте пожалуйста авторство группы R.G. HD-Films
pb.wtf



Скачать Плохие парни: Трилогия через торрент https://s4.gifyu.com/images/2d20ffecef525a7c4.gif Скачать, смотреть онлайн Плохие парни: Трилогия бесплантно в хорошем качестве В ролях: Мартин Лоуренс, Уилл Смит, Теа Леони, Чеки Карио, Тереза Рэндл, Мардж Хелгенбергер, Нестор Серрано, Хулио Оскар Мекозо, Саверио ... 10 10 7
Info! Золотая раздача, скачанное не засчитывается.
Торрент: Зарегистрирован [2020-04-25 11:33] · скачан: 35 раз
Статус: √ проверено
Размер: 14.51 GB
Как cкачать? Как скачать Плохие парни: Трилогия через торрент | UTorrent

28-11-2019 20:33  

Отключить всю рекламу на сайте

    Дорогой пользователь! Огромная просьба, поблагодарите релизера, оцените раздачу и оставьте свои комментарий, если Вы скачали Плохие парни: Трилогия через торрент бесплатно!
    Комментировать посты могут только пользователи прошедшие не сложную регистрацию
    Показать сообщения:    

    Плохие парни: Трилогия через торрент
    Скачать бесплатно Плохие парни: Трилогия
    Плохие парни: Трилогия скачать торрент
    Плохие парни: Трилогия смотреть онлайн
    Cкачать фильм Плохие парни: Трилогия бесплатно
    Плохие парни: Трилогия скачать торрент в хорошем качестве
    Плохие парни: Трилогия смотреть онлайн бесплатно в хорошем качестве


    Вы не можете начинать темы
    Вы не можете отвечать на сообщения
    Вы не можете редактировать свои сообщения
    Вы не можете удалять свои сообщения
    Вы не можете голосовать в опросах
    Вы не можете прикреплять файлы к сообщениям
    Вы можете скачивать файлы