Ссылка на приватное зеркало нашего сайта всего за 1$. Внимание количество ограничено!!!

2 сезон

iTunes

1 сезон

1

iTunes

iTunes

iTunes

1 сезон

RePack

30

ИГРА 18+

pack

ВАЖНО

!!Акция!!

Alien_RageХит недели

RePack

MK11
pack

Забери бонус

RePack

jed

!!Акция!!

Alien_Rage

RePack

fifa19

RePack

Assassins Creed: Odyssey

RePack

NEED FOR SPEED™ PAYBACK

4 сезон

9 сезон

Бесстыжие 9 сезон

Все сериалы

все сериалы на PB.wtf

RePack

FAR CRY 5
  

Ищейка / Сезон: 4 / Серии: 1-16 из 16 (Андрей Головков) [2020, Детектив, WEB-DLRip] pb.wtf

Ищейка через торрент pb.wtf

Раздают: 1 [ 0 KB/s ]
Размер: 10.23 GB | Добавлен: 5 мес. назад | Торрент скачан:24 раза
Скачать  

25-04-2020 14:49 Ищейка Скачать торрент  

Ищейка
Год выпуска: 2020
Страна: Россия
Жанр: Детектив
Продолжительность: ~ 00:50:00 серия
Перевод: Не требуется
Субтитры: отсутствуют

Режиссер: Андрей Головков



В ролях: Анна Банщикова, Александр Макогон, Дмитрий Миллер, Владислав Павлов, Эдуард Чекмазов, Владимир Николенко, Анатолий Гущин, Денис Бургазлиев, Ирина Пулина, Юлия Бедарева, Игорь Филиппов, Дмитрий Мазуров, Мария Берсенева, Александр Никольский (II), Анатолий Кот

Описание: Прошло больше двух лет с тех пор, как подполковник Александра Кушнир отошла от дел и с головой погрузилась в семейные хлопоты. Теперь Александра - счастливая мать маленького Миши, жена Бориса. И всё же, по-прежнему до безумия любя семью, Александра всё чаще не находит себе места без работы. Ежедневно распутывать самые сложные дела и одновременно ухаживать за ребёнком – непосильная задача даже для опытного следователя. Но Александра готова рискнуть. Она ещё не подозревает, что кое-кто из её прошлого теперь будет подстерегать её на каждом шагу…

Качество: WEB-DLRip
Формат: AVI

Видео: XviD, ~ 1600 Кбит/с, 720x400, 25 кадр/с
Аудио: 48.0 kHz, AC3 Dolby Digital, 2/0 (L,R) ch, ~ 192 kbps
скриншот  скриншот  скриншот  скриншот  скриншот  

General
Complete name : H:\fiiles x\Ищейка.2020. S04.WEB-DLRip.Files-x\01. Ищейка.2020. S04.WEB-DLRip.Files-x.avi
Format : AVI
Format/Info : Audio Video Interleave
File size : 662 MiB
Duration : 51mn 21s
Overall bit rate : 1 801 Kbps
Writing application : VirtualDubMod 1.5.10.3 | www.virtualdub-fr.org || (build 2550/release)
Writing library : VirtualDubMod build 2550/release

Video
ID : 0
Format : MPEG-4 Visual
Format profile : Advanced Simple@L5
Format settings, BVOP : 1
Format settings, QPel : No
Format settings, GMC : No warppoints
Format settings, Matrix : Custom
Codec ID : XVID
Codec ID/Hint : XviD
Duration : 51mn 21s
Bit rate : 1 600 Kbps
Width : 720 pixels
Height : 400 pixels
Display aspect ratio : 16:9
Frame rate : 25.000 fps
Color space : YUV
Chroma subsampling : 4:2:0
Bit depth : 8 bits
Scan type : Progressive
Compression mode : Lossy
Bits/(Pixel*Frame) : 0.222
Stream size : 588 MiB (89%)
Writing library : XviD 73

Audio
ID : 1
Format : AC-3
Format/Info : Audio Coding 3
Mode extension : CM (complete main)
Codec ID : 2000
Duration : 51mn 21s
Bit rate mode : Constant
Bit rate : 192 Kbps
Channel(s) : 2 channels
Channel positions : Front: L R
Sampling rate : 48.0 KHz
Bit depth : 16 bits
Compression mode : Lossy
Stream size : 70.5 MiB (11%)
Alignment : Split accross interleaves
Interleave, duration : 40 ms (1.00 video frame)
Interleave, preload duration : 500 ms

pb.wtf



Скачать Ищейка через торрент https://i111.fastpic.ru/big/2020/0406/2e/c8bb10a1f6b57bc9fec7be5851da022e.jpg Скачать фильм Ищейка через торрент бесплантно в хорошем качестве Описание: Прошло больше двух лет с тех пор, как подполковник Александра Кушнир отошла от дел и с головой погрузилась в семейные хлопоты. ... 10 10 6
Торрент: Зарегистрирован [2020-04-25 14:49] · скачан: 24 раз
Статус: √ проверено
Размер: 10.23 GB
Как cкачать? Как скачать Ищейка через торрент | qTorrent

% Раздел Тема Автор DL S | L
Наши сериалы [ 15.66 GB ] Ищейка / Сезон: 4 / Серии: 1-16 из 16 [2020 WEB-DL 720p] bober100 Скачать
2 | 0
Наши сериалы [ 9.38 GB ] Ищейка / Сезон: 4 / Серии: 1-16 из 16 [2020 SATRip] bober100 Скачать
1 | 0
Наши сериалы [ 12.31 GB ] Ищейка / Сезон: 4 / Серии: 1-16 из 16 [2020 HDTVRip-AVC] bober100 Скачать
1 | 0
Наши сериалы [ 35.44 GB ] Ищейка / Сезон: 4 / Серии: 1-16 из 16 [2020 HDTV 1080i] bober100 Скачать
1 | 0
Наши сериалы [ 20.73 GB ] Ищейка / Сезон: 4 / Серии: 1-16 из 16 [2020 HDTVRip 720p] bober100 Скачать
1 | 0
Наши сериалы [ 10.11 GB ] Ищейка / Сезон: 4 / Серии: 1-16 из 16 [2020 HDTVRip] bober100 Скачать
1 | 0
Наши сериалы [ 9.5 GB ] Ищейка / Сезон: 4 / Серии: 1-16 из 16 [2020 SATRip-AVC] aleksan55 Скачать
1 | 0

28-11-2019 20:33  

Отключить всю рекламу на сайте

    Дорогой пользователь! Огромная просьба, поблагодарите релизера, оцените раздачу и оставьте свои комментарий, если Вы скачали Ищейка через торрент бесплатно! Внесите свою лепту в развитие PiratBit!
    Комментировать посты могут только пользователи прошедшие не сложную регистрацию
    Показать сообщения:    

    Ищейка через торрент
    Скачать бесплатно Ищейка
    Ищейка скачать торрент
    Ищейка смотреть онлайн
    Cкачать фильм Ищейка бесплатно
    Ищейка скачать торрент в хорошем качестве
    Ищейка смотреть онлайн бесплатно в хорошем качестве


    Вы не можете начинать темы
    Вы не можете отвечать на сообщения
    Вы не можете редактировать свои сообщения
    Вы не можете удалять свои сообщения
    Вы не можете голосовать в опросах
    Вы не можете прикреплять файлы к сообщениям
    Вы можете скачивать файлы