Ссылка на приватное зеркало нашего сайта всего за 1$. Внимание количество ограничено!!!

2 сезон

iTunes

1 сезон

1

iTunes

iTunes

iTunes

1 сезон

RePack

30

ИГРА 18+

pack

ВАЖНО

!!Акция!!

Alien_RageХит недели

RePack

MK11
pack

Забери бонус

RePack

jed

!!Акция!!

Alien_Rage

RePack

fifa19

RePack

Assassins Creed: Odyssey

RePack

NEED FOR SPEED™ PAYBACK

4 сезон

9 сезон

Бесстыжие 9 сезон

Все сериалы

все сериалы на PB.wtf

RePack

FAR CRY 5
  

Жди меня / Серии: 1-4 из 4 (Стас Иванов) [2020, Военный, драма, мелодрама, WEB-DL 1080p] pb.wtf

Жди меня через торрент pb.wtf

Размер: 7.04 GB | Добавлен: 6 мес. назад | Торрент скачан:30 раз
Скачать  

25-04-2020 14:56 Жди меня Скачать торрент  

Жди меня
Год выпуска: 2020
Страна: Россия
Жанр: Военный, драма, мелодрама
Продолжительность: ~ 00:50:00 серия
Перевод: Не требуется
Субтитры: отсутствуют

Режиссер: Стас Иванов



В ролях: Валерия Ланская, Алексей Демидов, Артур Иванов, Виталий Коваленко, Оксана Базилевич, Алексей Гришин, Юрий Круглов, Карен Мартиросян, Надежда Игошина, Евгений Санников, Максим Виноградов (II), Виталий Кудрявцев, Иван Викулов, Арсений Робак, Дмитрий Подадаев, Алдар Когаев, Владимир Терещенко, Лев Малишава, Александр Аноприков, Алевтина Тукан, Анна Перелешина, Александр Шатохин, Константин Новиков, Константин Фисенко, Алексей Петров (VIII), Леонид Городецкий, Михаил Бранд, Леонид Серебренников, Дмитрий Лавров (III), Анастасия Масленникова, Алексей Петров (III), Елизавета Лотова, Ян Алабушев, Роман Эльбов, Сергей Копылов, Александр Гох, Михаил Коновалов, Илья Шарипов, Денис Пир

Описание: Фронтовая бригада артистов не первый год выступает на передовой. Недавно ее ряды пополнила Шурочка, актриса из тылового театра. Первое же выступление перед бойцами приносит Шурочке успех, причем не только зрительский – в нее с первого взгляда влюбляется полковник Громов. Его внимание вдохновляет Шурочку, однако скоро она встречает молодого разведчика, лейтенанта Кольцова. Девушке предстоит сделать непростой выбор между двумя героями войны – бравым казаком Громовым и ленинградским поэтом Кольцовым.

Качество: WEB-DL 1080p
Формат: MKV

Видео: MPEG-4 AVC, ~ 4800 Кбит/с, 1920x1080, 25 кадр/с
Аудио: 48.0 kHz, AC3 Dolby Digital, 2/0 (L,R) ch, ~ 192 kbps
скриншот  скриншот  скриншот  скриншот  

Общее
Уникальный идентификатор : 229778823575479756800210902176193942198 (0xACDDCAAC430F6C05962BAF5F0E6592B6)
Полное имя : C:Zhdi.menya.2019.WEB-DL.(1080p).Getty\Zhdi.menya.e01.2019.WEB-DL.(1080p).Getty.mkv
Формат : Matroska
Версия формата : Version 4
Размер файла : 1,77 Гбайт
Продолжительность : 52 м. 21 с.
Режим общего битрейта : Постоянный
Общий поток : 4841 Кбит/сек
Название фильма : Zhdi.menya.e01.2019.WEB-DL.(1080p).Getty
Дата кодирования : UTC 2020-04-25 14:28:30
Программа кодирования : mkvmerge v7.8.0 ('River Man') 32bit built on Mar 27 2015 16:18:02
Библиотека кодирования : libebml v1.3.1 + libmatroska v1.4.2

Видео
Идентификатор : 1
Формат : AVC
Формат/Информация : Advanced Video Codec
Профиль формата : High@L4.1
Настройки формата : CABAC / 4 Ref Frames
Параметр CABAC формата : Да
Параметр RefFrames формата : 4 кадра
Идентификатор кодека : V_MPEG4/ISO/AVC
Продолжительность : 52 м. 21 с.
Вид битрейта : Постоянный
Битрейт : 4653 Кбит/сек
Номинальный битрейт : 4800 Кбит/сек
Ширина : 1920 пикселей
Высота : 1080 пикселей
Соотношение сторон : 16:9
Режим частоты кадров : Постоянный
Частота кадров : 25,000 кадров/сек
Цветовое пространство : YUV
Субдискретизация насыщенности : 4:2:0
Битовая глубина : 8 бит
Тип развёртки : Прогрессивная
Бит/(Пиксели*Кадры) : 0.088
Размер потока : 1,66 Гбайт (94%)
Default : Да
Forced : Нет

Аудио
Идентификатор : 2
Формат : AC-3
Формат/Информация : Audio Coding 3
Коммерческое название : Dolby Digital
Идентификатор кодека : A_AC3
Продолжительность : 52 м. 21 с.
Вид битрейта : Постоянный
Битрейт : 192 Кбит/сек
Каналы : 2 канала
ChannelLayout : L R
Частота : 48,0 КГц
Частота кадров : 31,250 кадров/сек (1536 SPF)
Битовая глубина : 16 бит
Метод сжатия : С потерями
Размер потока : 71,9 Мбайт (4%)
ServiceKind/String : Complete Main
Default : Да
Forced : Нет

Раздача ведётся путём добавления новых серий, при каждом добавлении создаётся новый торрент. Чтобы начать докачку новой серии, пользователям необходимо сделать следующее:
- Остановить скачивание.
- Удалить старый торрент у себя из клиента (старые серии удалять не надо).
- Скачать новый торрент и запустить его у себя в клиенте вместо старого, при этом указать клиенту путь в старую папку куда и должно происходить скачивание новых серий.
Ваш клиент при этом должен произвести хеширование (проверку) старой папки (если не производит сам - помогите ему сделать это), и будет докачивать только те серии которых у вас ещё нет. Старые серии при этом не удаляются, а продолжают раздаваться!
pb.wtf



Скачать Жди меня через торрент https://a.radikal.ru/a18/2004/56/0ac196e88b8f.jpg Скачать фильм Жди меня через торрент бесплантно в хорошем качестве Описание: Фронтовая бригада артистов не первый год выступает на передовой. Недавно ее ряды пополнила Шурочка, актриса из тылового театра. ... 10 10 3
Торрент: Зарегистрирован [2020-04-25 16:40] · скачан: 30 раз
Статус: √ проверено
Размер: 7.04 GB
Как cкачать? Как скачать Жди меня через торрент | qTorrent

% Раздел Тема Автор DL S | L
Наши сериалы [ 3.13 GB ] Жди меня / Серии: 1-4 из 4 [2020 Военный HDTVRip-AVC] bober100 Скачать
1 | 0
Наши сериалы [ 2.61 GB ] Жди меня / Серии: 1-4 из 4 [2020 Военный WEB-DLRip] bober100 Скачать
1 | 0
Наши сериалы [ 2.57 GB ] Жди меня / Серии: 1-4 из 4 [2020 Военный HDTVRip] bober100 Скачать
2 | 0
Наши сериалы [ 8.36 GB ] Жди меня / Серии: 1-4 из 4 [2020 Военный HDTV 1080i] bober100 Скачать
3 | 0
Наши сериалы [ 2.42 GB ] Жди меня / Серии: 1-4 из 4 [2020 военный SATRip-AVC] aleksan55 Скачать
2 | 0
Наши сериалы [ 2.71 GB ] Жди меня / Серии: 1-4 из 4 [2020 Военный SATRip] bober100 Скачать
1 | 0

28-11-2019 20:33  

Отключить всю рекламу на сайте

    Дорогой пользователь! Огромная просьба, поблагодарите релизера, оцените раздачу и оставьте свои комментарий, если Вы скачали Жди меня через торрент бесплатно! Внесите свою лепту в развитие PiratBit!
    Комментировать посты могут только пользователи прошедшие не сложную регистрацию
    Показать сообщения:    

    Жди меня через торрент
    Скачать бесплатно Жди меня
    Жди меня скачать торрент
    Жди меня смотреть онлайн
    Cкачать фильм Жди меня бесплатно
    Жди меня скачать торрент в хорошем качестве
    Жди меня смотреть онлайн бесплатно в хорошем качестве


    Вы не можете начинать темы
    Вы не можете отвечать на сообщения
    Вы не можете редактировать свои сообщения
    Вы не можете удалять свои сообщения
    Вы не можете голосовать в опросах
    Вы не можете прикреплять файлы к сообщениям
    Вы можете скачивать файлы