Ссылка на приватное зеркало нашего сайта всего за 1$. Внимание количество ограничено!!!

2 сезон

iTunes

1 сезон

1

iTunes

iTunes

iTunes

1 сезон

RePack

30

ИГРА 18+

pack

ВАЖНО

!!Акция!!

Alien_RageХит недели

RePack

MK11
pack

Забери бонус

RePack

jed

!!Акция!!

Alien_Rage

RePack

fifa19

RePack

Assassins Creed: Odyssey

RePack

NEED FOR SPEED™ PAYBACK

4 сезон

9 сезон

Бесстыжие 9 сезон

Все сериалы

все сериалы на PB.wtf

RePack

FAR CRY 5
  

Семья Уиллоби / The Willoughbys (Крис Пирн, Кори Эванс, Роб Лодемаер) [2020, мультфильм, комедия, семейный, WEB-DLRip-AVC] Dub [Невафильм] pb.wtf

Семья Уиллоби через торрент pb.wtf

Раздают: 33 [ 0 KB/s ]
Размер: 1.47 GB | Добавлен: 6 мес. назад | Торрент скачан:279 раз
Скачать  

25-04-2020 16:30 Семья Уиллоби Скачать торрент  

Семья Уиллоби
The Willoughbys

«The Affable Tale of an Old Fashioned Family and a BEASTLY Baby»

Страна: Канада, США, Великобритания
Жанр: мультфильм, комедия, семейный
Год выпуска: 2020
Продолжительность: 01:32:17

Перевод: Профессиональный (полное дублирование) [Невафильм | Netflix]
Субтитры: русские (форсированные, полные), английские (SDH)
Оригинальная аудиодорожка: английский

Режиссер: Крис Пирн / Kris Pearn, Кори Эванс / Cory Evans, Роб Лодемаер / Rob Lodemeier

В ролях: Уилл Форте, Майя Рудольф, Алессия Кара, Терри Крюс, Мартин Шорт, Джейн Краковски, Шон Каллен, Рики Джервэйс, Брайан Драммонд, Крис Пирн

Описание: В семье Уиллоби дети решают отдохнуть от эгоистичных родителей, отправив их в отпуск.



Релиз:

Автор рипа: stalkerok

Сэмпл

Качество видео: WEB-DLRip-AVC | Исходник: The.Willoughbys.2020.1080p.NF.WEB-DL.DDP5.1.Atmos.x264-EniaHD
Формат видео: MKV
Видео кодек: AVC
Аудио кодек: AC3
Видео: AVC, 1382 Кбит/сек, 1138x476 (2.40:1), 24 кадр/сек
Аудио №1: AC3, 448 Кбит/сек, 48 КГц, 5.1 - русский
Аудио №2: AC3, 448 Кбит/сек, 48 КГц, 5.1 - английский
---[Information] [25.04.2020 19:03:27] x264 [info]: frame I:1306 Avg QP:12.97 size: 85039
---[Information] [25.04.2020 19:03:27] x264 [info]: frame P:33958 Avg QP:15.54 size: 15258
---[Information] [25.04.2020 19:03:27] x264 [info]: frame B:97629 Avg QP:16.95 size: 3358
---[Information] [25.04.2020 19:03:27] x264 [info]: consecutive B-frames: 4.1% 5.6% 11.2% 35.6% 15.5% 15.7% 2.3% 3.1% 2.0% 0.5% 0.4% 0.3% 0.5% 0.6% 0.9% 1.7%

General
Unique ID : 14264432729521958686867201403168553150 (0xABB3AD50C2F6E297061187FDA4CF8BE)
Complete name : C:\temp\The.Willoughbys.2020\The.Willoughbys.2020.WEB-DLRip.x264.Rus.Eng.stalkerok.New-Team.mkv
Format : Matroska
Format version : Version 4 / Version 2
File size : 1.47 GiB
Duration : 1 h 32 min
Overall bit rate : 2 281 kb/s
Movie name : The Willoughbys (2020) | Rip by stalkerok
Encoded date : UTC 2020-04-25 16:04:03
Writing application : mkvmerge v44.0.0 ('Domino') 64-bit
Writing library : libebml v1.3.10 + libmatroska v1.5.2

Video
ID : 1
Format : AVC
Format/Info : Advanced Video Codec
Format profile : High@L4.1
Format settings, CABAC : Yes
Format settings, ReFrames : 12 frames
Codec ID : V_MPEG4/ISO/AVC
Duration : 1 h 32 min
Bit rate : 1 383 kb/s
Width : 1 138 pixels
Height : 476 pixels
Display aspect ratio : 2.40:1
Frame rate mode : Constant
Frame rate : 24.000 FPS
Color space : YUV
Chroma subsampling : 4:2:0
Bit depth : 8 bits
Scan type : Progressive
Bits/(Pixel*Frame) : 0.106
Stream size : 913 MiB (61%)
Title : The Willoughbys (2020) | Rip by stalkerok
Writing library : x264 core 160 r3000 33f9e14
Encoding settings : cabac=1 / ref=12 / deblock=1:-1:-1 / analyse=0x3:0x133 / me=umh / subme=11 / psy=1 / psy_rd=1.00:0.00 / mixed_ref=1 / me_range=32 / chroma_me=1 / trellis=2 / 8x8dct=1 / cqm=0 / deadzone=21,11 / fast_pskip=0 / chroma_qp_offset=-2 / threads=12 / lookahead_threads=3 / sliced_threads=0 / nr=0 / decimate=1 / interlaced=0 / bluray_compat=0 / constrained_intra=0 / bframes=15 / b_pyramid=2 / b_adapt=2 / b_bias=0 / direct=3 / weightb=1 / open_gop=0 / weightp=2 / keyint=240 / keyint_min=23 / scenecut=40 / intra_refresh=0 / rc_lookahead=60 / rc=crf / mbtree=0 / crf=18.0 / qcomp=0.65 / qpmin=0 / qpmax=69 / qpstep=4 / vbv_maxrate=50000 / vbv_bufsize=62500 / crf_max=0.0 / nal_hrd=none / filler=0 / ip_ratio=1.40 / pb_ratio=1.30 / aq=3:0.80
Default : Yes
Forced : No

Audio #1
ID : 2
Format : AC-3
Format/Info : Audio Coding 3
Mode extension : CM (complete main)
Format settings, Endianness : Big
Codec ID : A_AC3
Duration : 1 h 32 min
Bit rate mode : Constant
Bit rate : 448 kb/s
Channel(s) : 6 channels
Channel positions : Front: L C R, Side: L R, LFE
Sampling rate : 48.0 kHz
Frame rate : 31.250 FPS (1536 spf)
Compression mode : Lossy
Stream size : 296 MiB (20%)
Language : Russian
Default : Yes
Forced : No

Audio #2
ID : 3
Format : AC-3
Format/Info : Audio Coding 3
Mode extension : CM (complete main)
Format settings, Endianness : Big
Codec ID : A_AC3
Duration : 1 h 32 min
Bit rate mode : Constant
Bit rate : 448 kb/s
Channel(s) : 6 channels
Channel positions : Front: L C R, Side: L R, LFE
Sampling rate : 48.0 kHz
Frame rate : 31.250 FPS (1536 spf)
Compression mode : Lossy
Stream size : 296 MiB (20%)
Language : English
Default : No
Forced : No

Text #1
ID : 4
Format : UTF-8
Codec ID : S_TEXT/UTF8
Codec ID/Info : UTF-8 Plain Text
Duration : 1 h 30 min
Bit rate : 1 b/s
Count of elements : 35
Stream size : 1.27 KiB (0%)
Title : Forced
Language : Russian
Default : Yes
Forced : No

Text #2
ID : 5
Format : UTF-8
Codec ID : S_TEXT/UTF8
Codec ID/Info : UTF-8 Plain Text
Duration : 1 h 30 min
Bit rate : 97 b/s
Count of elements : 1398
Stream size : 64.9 KiB (0%)
Language : Russian
Default : No
Forced : No

Text #3
ID : 6
Format : UTF-8
Codec ID : S_TEXT/UTF8
Codec ID/Info : UTF-8 Plain Text
Duration : 1 h 30 min
Bit rate : 76 b/s
Count of elements : 1581
Stream size : 50.9 KiB (0%)
Title : SDH
Language : English
Default : No
Forced : No
pb.wtf



Скачать Семья Уиллоби через торрент http://i6.imageban.ru/out/2017/09/18/2ff75c0c358795c5946784cc1680714d.png Скачать фильм Семья Уиллоби через торрент бесплантно в хорошем качестве Описание: В семье Уиллоби дети решают отдохнуть от эгоистичных родителей, отправив их в отпуск. Релиз: Автор рипа: ... 10 10 3
Info! Золотая раздача, скачанное не засчитывается.
Торрент: Зарегистрирован [2020-04-25 16:30] · скачан: 279 раз
Статус: √ проверено
Размер: 1.47 GB
Как cкачать? Как скачать Семья Уиллоби через торрент | qTorrent

% Раздел Тема Автор DL S | L
Иностранные мультфильмы [ 747 MB ] Семья Уиллоби / The Willoughbys [2020 мультфильм WEB-DLRip-AVC] Dub [Невафильм] sokol_ok Скачать
10 | 0
Иностранные мультфильмы [ 1.66 GB ] Семья Уиллоби / The Willoughbys [2020 Мультфильм WEB-DLRip-AVC] DUB [Невафильм] - ExKinoRay Mr. Grab Скачать
3 | 0
Зарубежные Мультфильмы (WEB-DL 720p, 1080p) [ 3.11 GB ] Семья Уиллоби / The Willoughbys [2020 мультфильм WEB-DL 1080p] killermax2013 Скачать
7 | 0

28-11-2019 20:33  

Отключить всю рекламу на сайте

    Дорогой пользователь! Огромная просьба, поблагодарите релизера, оцените раздачу и оставьте свои комментарий, если Вы скачали Семья Уиллоби через торрент бесплатно! Внесите свою лепту в развитие PiratBit!
    Комментировать посты могут только пользователи прошедшие не сложную регистрацию
    Показать сообщения:    

    Семья Уиллоби через торрент
    Скачать бесплатно Семья Уиллоби
    Семья Уиллоби скачать торрент
    Семья Уиллоби смотреть онлайн
    Cкачать фильм Семья Уиллоби бесплатно
    Семья Уиллоби скачать торрент в хорошем качестве
    Семья Уиллоби смотреть онлайн бесплатно в хорошем качестве


    Вы не можете начинать темы
    Вы не можете отвечать на сообщения
    Вы не можете редактировать свои сообщения
    Вы не можете удалять свои сообщения
    Вы не можете голосовать в опросах
    Вы не можете прикреплять файлы к сообщениям
    Вы можете скачивать файлы