Ссылка на приватное зеркало нашего сайта всего за 1$. Внимание количество ограничено!!!

2 сезон

iTunes

iTunes

1

iTunes

iTunes

iTunes

WEBRip

iTunes

30
pack

Забери бонус

ВАЖНО

!!Акция!!

Alien_RageХит недели

RePack

RESIDENT EVIL 3: NEMESIS REMAKE

ИГРА 18+

pack

RePack

jed

!!Акция!!

Alien_Rage

RePack

fifa19

RePack

Assassins Creed: Odyssey

RePack

NEED FOR SPEED™ PAYBACK

4 сезон

9 сезон

Бесстыжие 9 сезон

Все сериалы

все сериалы на PB.wtf

RePack

FAR CRY 5
  

Пушки Акимбо / Guns Akimbo (Джейсон Ли Хауден) [2019, боевик, комедия, HDRip-AVC] DVO [Кубик в Кубе] pb.wtf

Пушки Акимбо через торрент pb.wtf

Раздают: 7 [ 0 KB/s ]
Размер: 2.17 GB | Добавлен: 5 мес. 5 д. назад | Торрент скачан:197 раз
Скачать  

25-04-2020 20:30 Пушки Акимбо Скачать торрент  

Пушки Акимбо | Guns Akimbo
Год выпуска: 2019
Страна: Великобритания, Германия, Новая Зеландия
Студия: Altitude Film Entertainment, Electric Shadow Company, The, Four Knights Film
Жанр: боевик, комедия
Продолжительность: 01:37:48
Перевод: Профессиональный (двухголосый) | Кубик в Кубе по заказу КиноПоиск
Субтитры: Русские (форсированные, полные), Английские (полные)

Режиссер: Джейсон Ли Хауден

rating


В ролях: Дэниэл Рэдклифф, Самара Уивинг, Риз Дэрби, Нед Деннехи, Наташа Лю Бордиццо, Марк Роули, Грант Боулер, Ханако Футман, Джош Роберт Томпсон, Сет Сьостранд

Описание: Майлз был обычным разработчиком видеоигр, пока его не втянули в кровавый квест. Незнакомцы вломились в дом, прибили к рукам два пистолета и похитили любимую девушку. Теперь Майлзу придётся сразиться с Никс - безжалостной чемпионкой подпольных игр на выживание.

Качество: HDRip-AVC
Формат: MKV

Видео: 1152x480, 23,976 fps, 2538 kbps
Аудио#1: AC3, stereo, 192 kbps, 48 kHz (Кубик в Кубе)
Аудио#2: AC3, DD 5.1, 448 kbps, 48 kHz (Оригинальная англоязычная озвучка)
скриншот  скриншот  скриншот  скриншот  

Формат : Matroska
Версия формата : Version 4
Размер файла : 2,17 Гбайт
Продолжительность : 1 ч. 37 м.
Общий поток : 3177 Кбит/сек
Дата кодирования : UTC 2020-04-23 21:59:30
Программа кодирования : mkvmerge v8.3.0 ('Over the Horizon') 64bit
Библиотека кодирования : libebml v1.3.1 + libmatroska v1.4.2

Видео
Идентификатор : 1
Формат : AVC
Формат/Информация : Advanced Video Codec
Профиль формата : High@L4.1
Настройки формата : CABAC / 10 Ref Frames
Параметр CABAC формата : Да
Параметр RefFrames формата : 10 кадров
Идентификатор кодека : V_MPEG4/ISO/AVC
Продолжительность : 1 ч. 37 м.
Битрейт : 2538 Кбит/сек
Ширина : 1152 пикселя
Высота : 480 пикселей
Соотношение сторон : 2,40:1
Режим частоты кадров : Постоянный
Частота кадров : 23,976 (24000/1001) кадра/сек
Цветовое пространство : YUV
Субдискретизация насыщенности : 4:2:0
Битовая глубина : 8 бит
Тип развёртки : Прогрессивная
Бит/(Пиксели*Кадры) : 0.191
Размер потока : 1,73 Гбайт (80%)
Библиотека кодирования : x264 core 152 r2851 ba24899
Настройки программы : cabac=1 / ref=10 / deblock=1:-2:-1 / analyse=0x3:0x133 / me=umh / subme=10 / psy=1 / psy_rd=0.95:0.05 / mixed_ref=1 / me_range=32 / chroma_me=1 / trellis=2 / 8x8dct=1 / cqm=0 / deadzone=21,11 / fast_pskip=0 / chroma_qp_offset=-3 / threads=3 / lookahead_threads=1 / sliced_threads=0 / nr=0 / decimate=1 / interlaced=0 / bluray_compat=0 / constrained_intra=0 / bframes=9 / b_pyramid=2 / b_adapt=2 / b_bias=0 / direct=3 / weightb=1 / open_gop=0 / weightp=2 / keyint=240 / keyint_min=23 / scenecut=40 / intra_refresh=0 / rc_lookahead=80 / rc=2pass / mbtree=1 / bitrate=2538 / ratetol=1.0 / qcomp=0.60 / qpmin=10 / qpmax=51 / qpstep=4 / cplxblur=20.0 / qblur=0.5 / ip_ratio=1.40 / aq=1:1.00
Язык : English
Default : Да
Forced : Нет

Аудио #1
Идентификатор : 2
Формат : AC-3
Формат/Информация : Audio Coding 3
Коммерческое название : Dolby Digital
Идентификатор кодека : A_AC3
Продолжительность : 1 ч. 37 м.
Вид битрейта : Постоянный
Битрейт : 192 Кбит/сек
Каналы : 2 канала
Channel layout : L R
Частота : 48,0 КГц
Частота кадров : 31,250 кадров/сек (1536 SPF)
Битовая глубина : 16 бит
Метод сжатия : С потерями
Размер потока : 134 Мбайт (6%)
Заголовок : Кубик в Кубе
Язык : Russian
ServiceKind/String : Complete Main
Default : Да
Forced : Нет

Аудио #2
Идентификатор : 3
Формат : AC-3
Формат/Информация : Audio Coding 3
Коммерческое название : Dolby Digital
Идентификатор кодека : A_AC3
Продолжительность : 1 ч. 37 м.
Вид битрейта : Постоянный
Битрейт : 448 Кбит/сек
Каналы : 6 каналов
Channel layout : L R C LFE Ls Rs
Частота : 48,0 КГц
Частота кадров : 31,250 кадров/сек (1536 SPF)
Битовая глубина : 16 бит
Метод сжатия : С потерями
Размер потока : 313 Мбайт (14%)
Заголовок : Оригинальная дорожка
Язык : English
ServiceKind/String : Complete Main
Default : Нет
Forced : Нет

Текст #1
Идентификатор : 4
Формат : UTF-8
Идентификатор кодека : S_TEXT/UTF8
Идентификатор кодека/Информация : UTF-8 Plain Text
Продолжительность : 1 ч. 27 м.
Битрейт : 12 бит/сек
ElementCount : 70
Размер потока : 7,83 Кбайт (0%)
Заголовок : Кубик в Кубе [forced]
Язык : Russian
Default : Да
Forced : Нет

Текст #2
Идентификатор : 5
Формат : UTF-8
Идентификатор кодека : S_TEXT/UTF8
Идентификатор кодека/Информация : UTF-8 Plain Text
Продолжительность : 1 ч. 28 м.
Битрейт : 108 бит/сек
ElementCount : 1268
Размер потока : 70,2 Кбайт (0%)
Язык : Russian
Default : Нет
Forced : Нет

Текст #3
Идентификатор : 6
Формат : UTF-8
Идентификатор кодека : S_TEXT/UTF8
Идентификатор кодека/Информация : UTF-8 Plain Text
Продолжительность : 1 ч. 29 м.
Битрейт : 77 бит/сек
ElementCount : 1639
Размер потока : 50,6 Кбайт (0%)
Язык : English
Default : Нет
Forced : Нет

Меню
00:00:00.000 : en:Chapter 01
00:04:14.588 : en:Chapter 02
00:12:10.438 : en:Chapter 03
00:18:55.384 : en:Chapter 04
00:23:15.686 : en:Chapter 05
00:30:08.598 : en:Chapter 06
00:34:46.418 : en:Chapter 07
00:42:15.491 : en:Chapter 08
00:47:14.123 : en:Chapter 09
00:52:14.673 : en:Chapter 10
00:55:57.145 : en:Chapter 11
00:58:56.783 : en:Chapter 12
01:04:05.508 : en:Chapter 13
01:10:56.752 : en:Chapter 14
01:17:35.192 : en:Chapter 15
01:29:03.129 : en:Chapter 16

pb.wtf



Скачать Пушки Акимбо через торрент https://i1.imageban.ru/out/2020/04/25/0a581b24c6b0f227365e69a666b4b66f.jpg Скачать фильм Пушки Акимбо через торрент бесплантно в хорошем качестве Описание: Майлз был обычным разработчиком видеоигр, пока его не втянули в кровавый квест. Незнакомцы вломились в дом, прибили к рукам два ... 10 10 4
Торрент: Зарегистрирован [2020-04-25 20:30] · скачан: 197 раз
Статус: √ проверено
Размер: 2.17 GB
Как cкачать? Как скачать Пушки Акимбо через торрент | qTorrent

% Раздел Тема Автор DL S | L
Фильмы [HD 720p, 1080p] (Хороший звук DUB, MVO) [ 9.52 GB ] Пушки Акимбо / Guns Akimbo [2019 BDRip 1080p] +MVO [HDRezka Studio] bober100 Скачать
3 | 0
Фильмы [HD 720p, 1080p] (Звук Cam, VO, DVO) [ 5.1 GB ] Пушки Акимбо / Guns Akimbo [2019 BDRip 720p] DVO [Кубик в Кубе] bober100 Скачать
1 | 0
Фильмы (WEB-DL 720p, 1080p) [ 6.96 GB ] Пушки Акимбо / Guns Akimbo [2019 WEB-DL 1080p] 2xMVO [HDrezka Studio Mallorn] +DVO [LakeFilms] bober100 Скачать
10 | 0
Фильмы 2019-2020 [DVDrip, WEB-DLRip, HDrip] (DUB, MVO) [ 1.42 GB ] Пушки Акимбо / Guns Akimbo [2019 BDRip] - Twi7ter Скачать
82 | 0
Фильмы [HD 720p, 1080p] (Хороший звук DUB, MVO) [ 5.67 GB ] Пушки Акимбо / Guns Akimbo [2019 BDRip 720p] +MVO [HDRezka Studio] bober100 Скачать
5 | 0
Фильмы 2019-2020 [DVDrip, WEB-DLRip, HDrip] (DUB, MVO) [ 2.7 GB ] Пушки Акимбо / Guns Akimbo [2019 BDRip-AVC] +MVO [HDRezka Studio] - ExKinoRay Mr. Grab Скачать
1 | 0
Фильмы 2019-2020 [DVDrip, WEB-DLRip, HDrip] (DUB, MVO) [ 744 MB ] Пушки Акимбо / Guns Akimbo [2019 HDRip] bober100 Скачать
2 | 0

28-11-2019 20:33  

Отключить всю рекламу на сайте

    Дорогой пользователь! Огромная просьба, поблагодарите релизера, оцените раздачу и оставьте свои комментарий, если Вы скачали Пушки Акимбо через торрент бесплатно! Внесите свою лепту в развитие PiratBit!
    Комментировать посты могут только пользователи прошедшие не сложную регистрацию
    Показать сообщения:    

    Пушки Акимбо через торрент
    Скачать бесплатно Пушки Акимбо
    Пушки Акимбо скачать торрент
    Пушки Акимбо смотреть онлайн
    Cкачать фильм Пушки Акимбо бесплатно
    Пушки Акимбо скачать торрент в хорошем качестве
    Пушки Акимбо смотреть онлайн бесплатно в хорошем качестве


    Вы не можете начинать темы
    Вы не можете отвечать на сообщения
    Вы не можете редактировать свои сообщения
    Вы не можете удалять свои сообщения
    Вы не можете голосовать в опросах
    Вы не можете прикреплять файлы к сообщениям
    Вы можете скачивать файлы