Ссылка на приватное зеркало нашего сайта всего за 1$. Внимание количество ограничено!!!

2 сезон

iTunes

1 сезон

1

iTunes

iTunes

iTunes

1 сезон

RePack

30

ИГРА 18+

pack

ВАЖНО

!!Акция!!

Alien_RageХит недели

RePack

MK11
pack

Забери бонус

RePack

jed

!!Акция!!

Alien_Rage

RePack

fifa19

RePack

Assassins Creed: Odyssey

RePack

NEED FOR SPEED™ PAYBACK

4 сезон

9 сезон

Бесстыжие 9 сезон

Все сериалы

все сериалы на PB.wtf

RePack

FAR CRY 5
  

ИП Пирогова / Сезон: 3 / Серии: 1-13 из 13 (Акаки Сахелашвили) [2020, Комедия, WEBRip 720p] pb.wtf

ИП Пирогова через торрент pb.wtf

Размер: 6.72 GB | Добавлен: 5 мес. 3 д. назад | Торрент скачан:34 раза
Скачать  

26-04-2020 02:41 ИП Пирогова Скачать торрент  

ИП Пирогова
Год выпуска: 2020
Страна: Россия
Жанр: Комедия
Продолжительность: ~ 00:25:00
Перевод: Не требуется
Субтитры: отсутствуют

Режиссер: Акаки Сахелашвили

rating

В ролях: Елена Подкаминская, Настасья Кербенген, Данила Дунаев, Александр Панкратов-Чёрный, Александр Константинов, Ксения Теплова, Елена Валюшкина, Дмитрий Лысенков, Алексей Агранович, Василина Юсковец

Описание: С тех пор, как Вера Пирогова подписала контракт с сетью ресторанов «Бальзак Гурмэ», прошло полгода. Ее кондитерская, наконец, стала приносить хороший доход, однако строгий контроль в лице владельца сети Дениса Алексеевича не дает Вере расслабиться ни на минуту. К тому же, помощников на кухне стало меньше: сестра Саша готовится стать мамой, частенько злоупотребляя своим интересным положением, дочь Юля с головой окунулась в студенческую жизнь, а неутомимый папа Виктор Павлович каждый день находит новые приключения. Личная жизнь самой Веры по-прежнему оставляет желать лучшего. Запутанные отношения с Андреем осложняются с появлением Дениса, который, оказывается, совсем не равнодушен к Вере.

Качество: WEBRip 720p
Формат: MKV

Видео: MPEG-4 AVC, ~ 3000 Кбит/с, 1280x720, 25 кадр/с
Аудио: 48.0 kHz, AC3 Dolby Digital, 2/0 (L,R) ch, ~ 192 kbps
скриншот  скриншот  скриншот  скриншот  

Общее
Уникальный идентификатор : 178031919874866872593181934184456047441 (0x85EFB3578813EBFA862D3B5EC6A4CB51)
Полное имя : C:IP.Pirogova.s03.(2020).WEB-DL.720p.ExKinoRay\IP.Pirogova.s03.e01.(2020).WEB-DL.720p.ExKinoRay.mkv
Формат : Matroska
Версия формата : Version 2
Размер файла : 564 Мбайт
Продолжительность : 24 м. 57 с.
Режим общего битрейта : Переменный
Общий поток : 3160 Кбит/сек
Дата кодирования : UTC 2020-04-25 23:56:30
Программа кодирования : mkvmerge v5.8.0 ('No Sleep / Pillow') built on Sep 2 2012 15:37:04
Библиотека кодирования : libebml v1.2.3 + libmatroska v1.3.0

Видео
Идентификатор : 1
Формат : AVC
Формат/Информация : Advanced Video Codec
Профиль формата : High@L3.1
Настройки формата : CABAC / 1 Ref Frames
Параметр CABAC формата : Да
Параметр RefFrames формата : 1 кадр
Идентификатор кодека : V_MPEG4/ISO/AVC
Продолжительность : 24 м. 57 с.
Вид битрейта : Переменный
Битрейт : 2906 Кбит/сек
Максимальный битрейт : 3000 Кбит/сек
Ширина : 1280 пикселей
Высота : 720 пикселей
Соотношение сторон : 16:9
Режим частоты кадров : Постоянный
Частота кадров : 25,000 кадров/сек
Цветовое пространство : YUV
Субдискретизация насыщенности : 4:2:0
Битовая глубина : 8 бит
Тип развёртки : Прогрессивная
Бит/(Пиксели*Кадры) : 0.126
Размер потока : 519 Мбайт (92%)
Язык : Russian
Default : Да
Forced : Нет

Аудио
Идентификатор : 2
Формат : AC-3
Формат/Информация : Audio Coding 3
Коммерческое название : Dolby Digital
Идентификатор кодека : A_AC3
Продолжительность : 24 м. 57 с.
Вид битрейта : Постоянный
Битрейт : 192 Кбит/сек
Каналы : 2 канала
ChannelLayout : L R
Частота : 48,0 КГц
Частота кадров : 31,250 кадров/сек (1536 SPF)
Битовая глубина : 16 бит
Метод сжатия : С потерями
Размер потока : 34,3 Мбайт (6%)
Язык : Russian
ServiceKind/String : Complete Main
Default : Да
Forced : Нет

Когда раздача ведётся путём добавления новых серий, при каждом добавлении создётся новый торрент. Чтобы начать докачку новой серии, пользователям необходимо сделать следующее:
(1) остановить скачивание,
(2) удалить старый торрент у себя из клиента (старые серии удалять не надо),
(3) скачать новый торрент и запустить его у себя в клиенте вместо старого, при этом указать клиенту путь в старую папку, куда и должно происходить скачивание новых серий.
Ваш клиент при этом должен произвести хеширование (проверку) старой папки (если не производит сам - помогите ему сделать это), и будет докачивать только те серии, которых у вас ещё нет. Старые серии при этом не удаляются, а продолжают раздаваться!
Eсли вы уже удалили старые серии, то предотвратить повторную закачку старых серий можно, отжав галочку в соответсвующих местах при запуске нового торрента. По возможности, желательно не удалять старые серии как можно дольше, чтобы релизер не столько продолжал раздавать старые серии, а смог сконцентрироваться на новых.
pb.wtf



Скачать ИП Пирогова через торрент https://img12.lostpic.net/2020/04/25/6e80099a341e3b69786a3deb933ece56.jpg Скачать фильм ИП Пирогова через торрент бесплантно в хорошем качестве Описание: С тех пор, как Вера Пирогова подписала контракт с сетью ресторанов «Бальзак Гурмэ», прошло полгода. Ее кондитерская, наконец, ... 10 10 6
Торрент: Зарегистрирован [2020-05-22 10:39] · скачан: 34 раз
Статус: √ проверено
Размер: 6.72 GB
Как cкачать? Как скачать ИП Пирогова через торрент | qTorrent

% Раздел Тема Автор DL S | L
Наши сериалы [ 3.82 GB ] ИП Пирогова / Сезон: 3 / Серии: 1-13 из 13 [2020 WEBRip-AVC] bober100 Скачать
1 | 0
Наши сериалы [ 4.45 GB ] ИП Пирогова / Сезон: 3 / Серии: 1-13 из 13 [2020 WEBRip] bober100 Скачать
1 | 0
Наши сериалы [ 9.89 GB ] ИП Пирогова / Сезон: 3 / Серии: 1-13 из 13 [2020 WEBRip 1080p] bober100 Скачать
1 | 0

28-11-2019 20:33  

Отключить всю рекламу на сайте

    Дорогой пользователь! Огромная просьба, поблагодарите релизера, оцените раздачу и оставьте свои комментарий, если Вы скачали ИП Пирогова через торрент бесплатно! Внесите свою лепту в развитие PiratBit!
    Комментировать посты могут только пользователи прошедшие не сложную регистрацию
    Показать сообщения:    

    ИП Пирогова через торрент
    Скачать бесплатно ИП Пирогова
    ИП Пирогова скачать торрент
    ИП Пирогова смотреть онлайн
    Cкачать фильм ИП Пирогова бесплатно
    ИП Пирогова скачать торрент в хорошем качестве
    ИП Пирогова смотреть онлайн бесплатно в хорошем качестве


    Вы не можете начинать темы
    Вы не можете отвечать на сообщения
    Вы не можете редактировать свои сообщения
    Вы не можете удалять свои сообщения
    Вы не можете голосовать в опросах
    Вы не можете прикреплять файлы к сообщениям
    Вы можете скачивать файлы