2 сезон

iTunes

MVO

1

2 сезон

iTunes

iTunes

1 сезон

RePack

30

Ultimate

ВАЖНО

ИГРА 18+

pack

RePack

MK11
pack

Легкие деньги

RePack

jed

RePack

fifa19

RePack

RDR2

RePack

NEED FOR SPEED™ PAYBACK

4 сезон

9 сезон

Бесстыжие 9 сезон

Все сериалы

все сериалы на PB.wtf

RePack

FAR CRY 5

Anonymous, доброй ночи, мы не успеваем собрать деньги на оплату серверов за декабрь и январь, помогите нам пожалуйста в это трудное время. В качестве благодарности мы отключим Вам всю рекламу на сайте (укажите свой ник в строку Ваше имя)!

×
  
Magnet ссылка

Мидуэй / Midway (Роланд Эммерих) [2019, военный, боевик, история, BDRip 1080p, 60 fps] Дубляж [iTunes] pb.wtf

Мидуэй через торрент pb.wtf

Размер: 18.93 GB | Добавлен: 8 мес. назад | Торрент скачан:45 раз
Скачать  

26-04-2020 04:52 Мидуэй Скачать торрент  

Мидуэй / Midway««Based on real events»»

Год выпуска: 2019
Страна: Китай, Гонконг, Канада, США
Жанр: военный, боевик, история, биография
Продолжительность: 02:18:37
Перевод: Дублированный [iTunes]
Субтитры: Русские, английские
Режиссер: Роланд Эммерих

В ролях:

Эд Скрейн (Dick Best), Патрик Уилсон (Edwin Layton), Вуди Харрельсон (Chester W. Nimitz), Люк Эванс (Wade McClusky), Мэнди Мур (Ann Best), Люк Клеинтенк (Clarence Dickinson), Деннис Куэйд (William «Bull» Halsey), Аарон Экхарт (Jimmy Doolittle), Киан Джонсон (James Murray), Ник Джонас (Bruno Gaido), Эцуси Тоёкава (Isoroku Yamamoto), Таданобу Асано (Tamon Yamaguchi)
Описание:
История одного из самых масштабных и стратегически важных морских сражений на Тихом океане Второй мировой войны. После разгрома японской авиацией большей части флота США в Перл-Харборе до этого придерживавшаяся нейтралитета Америка вступает в войну. В июне 1942 года остатки американского флота под командованием адмирала Честера Нимица сражаются с Императорским флотом Японии у атолла Мидуэй.
Рейтинг:

MPAA: PG-13 - Детям до 13 лет просмотр не желателен
Качество: BDRip 1080p
Формат: MKV
Видео: 1920 x 800 (2.400) | 59.940 fps | 17.2 Мбит/сек
Аудио 1: AC-3 | 5.1 | 48 kHz | 384 Кбит/сек | 16 bit | Дубляж (iTunes) | RUS |
Аудио 2: DTS-HD MA | 5.1 | 48 kHz | 1509 Кбит/сек | 24 bit | Оригинал | ENG |
Навигация по главам: есть

General
Unique ID : 132670670922061892238055262126333244598 (0x63CF7118F52C501FEAAD5090331834B6)
Complete name : D:\2019 Мидуэй BDRip 1080p 60 fps.mkv
Format : Matroska
Format version : Version 4 / Version 2
File size : 18.9 GiB
Duration : 2h 18mn
Overall bit rate mode : Variable
Overall bit rate : 19.6 Mbps
Movie name : Мидуэй / Midway
Encoded date : UTC 2020-02-25 19:54:41
Writing application : mkvmerge v22.0.0 ('At The End Of The World') 64-bit
Writing library : libebml v1.3.5 + libmatroska v1.4.8
DURATION : 02:08:14.788000000
NUMBER_OF_FRAMES : 1657
NUMBER_OF_BYTES : 46134
_STATISTICS_WRITING_APP : mkvmerge v22.0.0 ('At The End Of The World') 64-bit
_STATISTICS_WRITING_DATE_UTC : 2020-02-25 19:54:41
_STATISTICS_TAGS : BPS DURATION NUMBER_OF_FRAMES NUMBER_OF_BYTES
Video #1
ID : 1
Format : AVC
Format/Info : Advanced Video Codec
Format profile : High@L4.1
Format settings, CABAC : Yes
Format settings, ReFrames : 5 frames
Codec ID : V_MPEG4/ISO/AVC
Duration : 2h 18mn
Bit rate : 17.2 Mbps
Nominal bit rate : 15.0 Mbps
Width : 1 920 pixels
Height : 800 pixels
Display aspect ratio : 2.40:1
Frame rate : 59.940 fps
Color space : YUV
Chroma subsampling : 4:2:0
Bit depth : 8 bits
Scan type : Progressive
Bits/(Pixel*Frame) : 0.187
Stream size : 16.7 GiB (88%)
Writing library : x264 core 146 r2538 121396c
Encoding settings : cabac=1 / ref=5 / deblock=1:-2:-2 / analyse=0x3:0x113 / me=umh / subme=10 / psy=1 / psy_rd=1.00:0.25 / mixed_ref=1 / me_range=32 / chroma_me=1 / trellis=2 / 8x8dct=1 / cqm=0 / deadzone=6,6 / fast_pskip=1 / chroma_qp_offset=-4 / threads=12 / lookahead_threads=2 / sliced_threads=0 / nr=0 / decimate=0 / interlaced=0 / bluray_compat=0 / constrained_intra=0 / bframes=8 / b_pyramid=2 / b_adapt=2 / b_bias=0 / direct=3 / weightb=1 / open_gop=0 / weightp=2 / keyint=599 / keyint_min=60 / scenecut=40 / intra_refresh=0 / rc_lookahead=60 / rc=2pass / mbtree=1 / bitrate=15000 / ratetol=1.0 / qcomp=0.80 / qpmin=0 / qpmax=69 / qpstep=4 / cplxblur=20.0 / qblur=0.5 / vbv_maxrate=50000 / vbv_bufsize=65000 / nal_hrd=none / filler=0 / ip_ratio=1.10 / aq=1:0.50
Language : English
Default : Yes
Forced : No
DURATION : 02:18:25.264000000
NUMBER_OF_FRAMES : 497818
NUMBER_OF_BYTES : 15537263742
_STATISTICS_WRITING_APP : mkvmerge v22.0.0 ('At The End Of The World') 64-bit
_STATISTICS_WRITING_DATE_UTC : 2020-02-25 19:54:41
_STATISTICS_TAGS : BPS DURATION NUMBER_OF_FRAMES NUMBER_OF_BYTES
Audio #2
ID : 2
Format : AC-3
Format/Info : Audio Coding 3
Mode extension : CM (complete main)
Format settings, Endianness : Big
Codec ID : A_AC3
Duration : 2h 18mn
Bit rate mode : Constant
Bit rate : 384 Kbps
Channel(s) : 6 channels
Channel positions : Front: L C R, Side: L R, LFE
Sampling rate : 48.0 KHz
Bit depth : 16 bits
Compression mode : Lossy
Stream size : 380 MiB (2%)
Title : Дубляж (iTunes)
Language : Russian
Default : Yes
Forced : Yes
Audio #3
ID : 3
Format : DTS
Format/Info : Digital Theater Systems
Format profile : MA / Core
Codec ID : A_DTS
Duration : 2h 18mn
Bit rate mode : Variable
Bit rate : 1 561 Kbps / 1 510 Kbps
Channel(s) : 6 channels
Channel positions : Front: L C R, Side: L R, LFE
Sampling rate : 48.0 KHz
Bit depth : 24 bits
Compression mode : Lossless / Lossy
Title : Original
Language : English
Default : No
Forced : No
Text #4
ID : 4
Format : UTF-8
Codec ID : S_TEXT/UTF8
Codec ID/Info : UTF-8 Plain Text
Title : Forced
Language : Russian
Default : Yes
Forced : Yes
Text #5
ID : 5
Format : UTF-8
Codec ID : S_TEXT/UTF8
Codec ID/Info : UTF-8 Plain Text
Title : Full
Language : English
Default : No
Forced : No
Text #6
ID : 6
Format : UTF-8
Codec ID : S_TEXT/UTF8
Codec ID/Info : UTF-8 Plain Text
Title : SDH
Language : English
Default : No
Forced : No
Menu
00:00:00.000 : en:Глава 01
00:06:55.832 : en:Глава 02
00:13:53.207 : en:Глава 03
00:20:24.765 : en:Глава 04
00:27:03.330 : en:Глава 05
00:32:55.182 : en:Глава 06
00:40:35.975 : en:Глава 07
00:46:57.732 : en:Глава 08
00:53:50.769 : en:Глава 09
01:01:12.544 : en:Глава 10
01:07:55.113 : en:Глава 11
01:14:48.734 : en:Глава 12
01:21:41.105 : en:Глава 13
01:27:32.038 : en:Глава 14
01:35:09.537 : en:Глава 15
01:42:11.125 : en:Глава 16
01:48:30.671 : en:Глава 17
01:54:44.127 : en:Глава 18
02:02:23.002 : en:Глава 19
02:09:12.787 : en:Глава 20
pb.wtf



Скачать Мидуэй через торрент https://d.radikal.ru/d02/2004/cd/2ef56c4f3d45.png Скачать фильм Мидуэй через торрент бесплантно в хорошем качестве Описание: История одного из самых масштабных и стратегически важных морских сражений на Тихом океане Второй мировой войны. После разгрома ... 10 10 3
Торрент: Зарегистрирован [2020-04-26 04:52] · скачан: 45 раз
Статус: √ проверено
Размер: 18.93 GB
Как cкачать? Как скачать Мидуэй через торрент | UTorrent

% Раздел Тема Автор DL S | L
Фильмы [HD 720p, 1080p] (Хороший звук DUB, MVO) [ 8.86 GB ] Мидуэй / Midway [2019 военный история BDRip 1080p] bober100 Скачать
5 | 0
Фильмы (HD 720p, 1080p) (48-60 fps) [ 4.24 GB ] Мидуэй - Midway [2019 военный BDRip - HEVC 1080p 10 bit 60 FPS] - [] dd2d3 Скачать
5 | 0
Ultra HD (UHD: 2K, 4K, 8K) — видео сверхвысокой чёткости [ 73.84 GB ] Мидуэй / Midway [2019 военный история UHD BDRemux 2160p ] bober100 Скачать
1 | 0
Фильмы 2019-2020 [DVDrip, WEB-DLRip, HDrip] (DUB, MVO) [ 2.12 GB ] Мидуэй / Midway [2019 военный история BDRip] - Twi7ter Скачать
13 | 0
Фильмы 2019-2020 [DVDrip, WEB-DLRip, HDrip] (DUB, MVO) [ 1.46 GB ] Мидуэй / Midway [2019 военный история BDRip] - Twi7ter Скачать
22 | 0
Ultra HD (UHD: 2K, 4K, 8K) — видео сверхвысокой чёткости [ 25.41 GB ] Мидуэй / Midway [2019 военный история UHD BDRip 2160p] bober100 Скачать
2 | 0
Фильмы 2019-2020 [DVDrip, WEB-DLRip, HDrip] (DUB, MVO) [ 798 MB ] Мидуэй / Midway [2019 военный история HDRip] bober100 Скачать
1 | 0

28-11-2019 20:33  

Отключить всю рекламу на сайте

    Дорогой пользователь! Огромная просьба, поблагодарите релизера, оцените раздачу и оставьте свои комментарий, если Вы скачали Мидуэй через торрент бесплатно! Внесите свою лепту в развитие PiratBit!
    Комментировать посты могут только пользователи прошедшие не сложную регистрацию
    Показать сообщения:    

    Мидуэй через торрент
    Скачать бесплатно Мидуэй
    Мидуэй скачать торрент
    Мидуэй смотреть онлайн
    Cкачать фильм Мидуэй бесплатно
    Мидуэй скачать торрент в хорошем качестве
    Мидуэй смотреть онлайн бесплатно в хорошем качестве


    Вы не можете начинать темы
    Вы не можете отвечать на сообщения
    Вы не можете редактировать свои сообщения
    Вы не можете удалять свои сообщения
    Вы не можете голосовать в опросах
    Вы не можете прикреплять файлы к сообщениям
    Вы можете скачивать файлы