Ссылка на приватное зеркало нашего сайта всего за 1$. Внимание количество ограничено!!!

2 сезон

iTunes

1 сезон

1

2 сезон

2 сезон

iTunes

1 сезон

RePack

30

Ultimate

ВАЖНО

ИГРА 18+

pack

RePack

MK11
pack

Забери бонус

RePack

jed

!!Акция!!

Alien_Rage

RePack

fifa19

RePack

Assassins Creed: Odyssey

RePack

NEED FOR SPEED™ PAYBACK

4 сезон

9 сезон

Бесстыжие 9 сезон

Все сериалы

все сериалы на PB.wtf

RePack

FAR CRY 5
  

Текст (Клим Шипенко) [2019, Драма, триллер, HDRip-AVC (Версия без цензуры)] [Лицензия BD RUS] - ExKinoRay pb.wtf

Текст через торрент pb.wtf

Раздают: 27 [ 0 KB/s ]
Размер: 2.04 GB | Добавлен: 7 мес. назад | Торрент скачан:262 раза
Скачать  

26-04-2020 05:12 Текст Скачать торрент  

Название: Текст
Год выхода: 2019
Жанр: Драма, триллер
Режиссер: Клим Шипенко
В ролях: Александр Петров, Кристина Асмус, Иван Янковский, Софья Озерова, Максим Виноградов, Виталий Хаев, Дмитрий Глуховский, Кирилл Нагиев, Елена Финогеева

Описание: Главный герой — 27-летний Илья Горюнов, семь лет отсидевший в тюрьме по ложному обвинению в распространении наркотиков. Когда Илья выходит на свободу, он понимает, что прежняя жизнь, по которой он тосковал, разрушена, и вернуться к ней он больше не сможет. Хотя он не собирался мстить человеку, который отправил его в тюрьму, другого выхода теперь нет. Встретившись лицом к лицу со своим обидчиком, Илья совершает необдуманный поступок, после которого главный герой получает доступ к смартфону Петра, а с ним и к жизни молодого человека — его фотографиям и видео, перепискам с родителями и девушкой Ниной, к странным, полным недомолвок и угроз переговорам с коллегами. На время Илья становится для всех Петром — через текст на экране телефона.



Страна: Россия
Студия: Фонд развития современного кинематографа «КИНОПРАЙМ», Централ Партнершип, START Studio
Продолжительность: 02:11:30
Язык: Русский | Лицензия BD RUS

Формат: MKV
Качество: HDRip-AVC
Видео: MPEG-4 AVC, 1024x428 (2.40:1), 24.000 fps, 1779 Kbps, 0.169 bit/pixel
Аудио : 48 kHz, AC3, 5.1, 448 Kbps | RUS |

18+ [ненормативная лексика, сцены сексуального характера]
General
Unique ID : 181210479094876939854290766075325378663 (0x8853DE693067EC4F987C839E50F8F067)
Complete name : F:Tekst.2019.HDRip.AVC.ExKinoRay.mkv
Format : Matroska
Format version : Version 2
File size : 2.04 GiB
Duration : 2 h 11 min
Overall bit rate : 2 222 kb/s
Movie name : Tekst 2019 from ExKinoRay
Encoded date : UTC 2020-04-26 04:45:14
Writing application : mkvmerge v5.6.0 ('Kenya Kane') built on May 27 2012 16:44:04
Writing library : libebml v1.2.3 + libmatroska v1.3.0

Video
ID : 1
Format : AVC
Format/Info : Advanced Video Codec
Format profile : High@L4.1
Format settings, CABAC : Yes
Format settings, ReFrames : 11 frames
Codec ID : V_MPEG4/ISO/AVC
Duration : 2 h 11 min
Bit rate : 1 779 kb/s
Width : 1 024 pixels
Height : 428 pixels
Display aspect ratio : 2.40:1
Frame rate mode : Constant
Frame rate : 24.000 FPS
Color space : YUV
Chroma subsampling : 4:2:0
Bit depth : 8 bits
Scan type : Progressive
Bits/(Pixel*Frame) : 0.169
Stream size : 1.59 GiB (78%)
Title : Enigma
Writing library : x264 core 152 r2851 ba24899
Encoding settings : cabac=1 / ref=11 / deblock=1:-2:-2 / analyse=0x3:0x113 / me=umh / subme=10 / psy=1 / psy_rd=1.04:0.06 / mixed_ref=1 / me_range=32 / chroma_me=1 / trellis=2 / 8x8dct=1 / cqm=0 / deadzone=21,11 / fast_pskip=0 / chroma_qp_offset=-3 / threads=12 / lookahead_threads=3 / sliced_threads=0 / nr=0 / decimate=0 / interlaced=0 / bluray_compat=0 / constrained_intra=0 / bframes=10 / b_pyramid=2 / b_adapt=2 / b_bias=0 / direct=3 / weightb=1 / open_gop=0 / weightp=2 / keyint=240 / keyint_min=24 / scenecut=40 / intra_refresh=0 / rc=2pass / mbtree=0 / bitrate=1779 / ratetol=1.0 / qcomp=0.60 / qpmin=0 / qpmax=51 / qpstep=4 / cplxblur=20.0 / qblur=0.5 / ip_ratio=1.40 / pb_ratio=1.30 / aq=1:1.00
Default : Yes
Forced : No

Audio
ID : 2
Format : AC-3
Format/Info : Audio Coding 3
Mode extension : CM (complete main)
Format settings, Endianness : Big
Codec ID : A_AC3
Duration : 2 h 11 min
Bit rate mode : Constant
Bit rate : 448 kb/s
Channel(s) : 6 channels
Channel positions : Front: L C R, Side: L R, LFE
Sampling rate : 48.0 kHz
Frame rate : 31.250 FPS (1536 spf)
Compression mode : Lossy
Stream size : 421 MiB (20%)
Title : Blu-Ray
Language : Russian
Default : Yes
Forced : No

Menu
00:00:00.000 : en:Chapter 1
00:00:33.083 : en:Chapter 2
00:11:21.666 : en:Chapter 3
00:22:13.000 : en:Chapter 4
00:34:28.166 : en:Chapter 5
00:50:25.375 : en:Chapter 6
01:03:27.666 : en:Chapter 7
01:18:00.625 : en:Chapter 8
01:30:13.750 : en:Chapter 9
01:44:06.916 : en:Chapter 10
01:57:59.083 : en:Chapter 11


Релиз от:

Автор релиза: pb.wtf



Скачать Текст через торрент https://a.radikal.ru/a26/1912/d6/7828e141cc90.jpg Скачать фильм Текст через торрент бесплантно в хорошем качестве Описание: Главный герой — 27-летний Илья Горюнов, семь лет отсидевший в тюрьме по ложному обвинению в распространении наркотиков. Когда ... 7.8 10 4
Info! Золотая раздача, скачанное не засчитывается.
Торрент: Зарегистрирован [2020-04-26 05:12] · скачан: 262 раз
Статус: √ проверено
Размер: 2.04 GB
Как cкачать? Как скачать Текст через торрент | qTorrent

% Раздел Тема Автор DL S | L
Наши новые фильмы 2018-2019 [ 2.03 GB ] Текст [2019 WEB-DLRip-AVC ] - ExKinoRay Enigma2010 Скачать
22 | 0

28-11-2019 20:33  

Отключить всю рекламу на сайте

    Дорогой пользователь! Огромная просьба, поблагодарите релизера, оцените раздачу и оставьте свои комментарий, если Вы скачали Текст через торрент бесплатно! Внесите свою лепту в развитие PiratBit!
    Комментировать посты могут только пользователи прошедшие не сложную регистрацию
    Показать сообщения:    

    Текст через торрент
    Скачать бесплатно Текст
    Текст скачать торрент
    Текст смотреть онлайн
    Cкачать фильм Текст бесплатно
    Текст скачать торрент в хорошем качестве
    Текст смотреть онлайн бесплатно в хорошем качестве


    Вы не можете начинать темы
    Вы не можете отвечать на сообщения
    Вы не можете редактировать свои сообщения
    Вы не можете удалять свои сообщения
    Вы не можете голосовать в опросах
    Вы не можете прикреплять файлы к сообщениям
    Вы можете скачивать файлы