Ссылка на приватное зеркало нашего сайта всего за 1$. Внимание количество ограничено!!!

2 сезон

iTunes

1 сезон

1

iTunes

iTunes

iTunes

1 сезон

RePack

30

ИГРА 18+

pack

ВАЖНО

!!Акция!!

Alien_RageХит недели

RePack

MK11
pack

Забери бонус

RePack

jed

!!Акция!!

Alien_Rage

RePack

fifa19

RePack

Assassins Creed: Odyssey

RePack

NEED FOR SPEED™ PAYBACK

4 сезон

9 сезон

Бесстыжие 9 сезон

Все сериалы

все сериалы на PB.wtf

RePack

FAR CRY 5
  

Бык и Шпиндель / Серии: 1-4 из 4 (Анатолий Артамонов) [2015, Детектив, комедия, HDTV 1080i] pb.wtf

Бык и Шпиндель через торрент pb.wtf

Размер: 10.5 GB | Добавлен: 5 мес. 26 д. назад | Торрент скачан:18 раз
Скачать  

26-04-2020 06:39 Бык и Шпиндель Скачать торрент  

Бык и Шпиндель
Год выпуска: 2015
Страна: Россия
Жанр: Детектив, комедия
Продолжительность: ~ 00:44:00
Субтитры: отсутствуют

Режиссер: Анатолий Артамонов

rating

В ролях: Игорь Лифанов, Владимир Зайцев, Наталья Гудкова, Руслан Щедрин, Денис Беспалый, Сергей Чверкалюк, Олег Примогенов, Олег Шевчук, Александр Товстый, Иван Цуркан, Виталий Иванченко, Борис Георгиевский

Описание: Освободившийся из заключения вор-неудачник Василий Шпинягин по кличке Шпиндель возвращается в родной городок Приморск, где встречает своего давнего врага - следователя по фамилии Бык. Того самого, который когда-то посадил Шпинделя за решетку. Впрочем, самого Быка из органов давно выгнали, и теперь он ведёт жизнь неудачника на старой даче. Рядом по случаю поселяется и Шпиндель, что подозрительного Быка раздражает, а у безалаберного весельчака Шпинделя вызывает сплошные подколы и шутки в адрес Быка. Столкновение между этими двумя противоположностями неизбежно, учитывая еще и тот факт, что оба героя проявляют симпатию к продавщице Зойке...

Качество: HDTV 1080i
Формат: TS

Видео: MPEG-4 AVC, ~ 7900 Кбит/с, 1920x1080, 25 кадр/с
Аудио: MP2, 2 ch, 192 Кбит/с
скриншот  скриншот  скриншот  скриншот  

General
ID : 1 (0x1)
Complete name : Byk.i.Shpindel.03.2014.HDTV.1080i.ts
Format : MPEG-TS
File size : 2.60 GiB
Duration : 43mn 58s
Overall bit rate mode : Variable
Overall bit rate : 8 477 Kbps

Video
ID : 901 (0x385)
Menu ID : 1075 (0x433)
Format : AVC
Format/Info : Advanced Video Codec
Format profile : Main@L4
Format settings, CABAC : Yes
Format settings, ReFrames : 2 frames
Codec ID : 27
Duration : 43mn 58s
Bit rate : 7 864 Kbps
Width : 1 920 pixels
Height : 1 080 pixels
Display aspect ratio : 16:9
Frame rate : 25.000 fps
Color space : YUV
Chroma subsampling : 4:2:0
Bit depth : 8 bits
Scan type : MBAFF
Scan order : Top Field First
Bits/(Pixel*Frame) : 0.152
Stream size : 2.42 GiB (93%)
Color range : Limited
Color primaries : BT.709
Transfer characteristics : BT.709
Matrix coefficients : BT.709

Audio
ID : 902 (0x386)
Menu ID : 1075 (0x433)
Format : MPEG Audio
Format version : Version 1
Format profile : Layer 2
Codec ID : 3
Duration : 43mn 58s
Bit rate mode : Constant
Bit rate : 192 Kbps
Channel(s) : 2 channels
Sampling rate : 48.0 KHz
Compression mode : Lossy
Stream size : 60.4 MiB (2%)
Language : Russian

pb.wtf



Скачать Бык и Шпиндель через торрент http://i64.fastpic.ru/big/2015/0129/7c/4e198b52e005ee8f5f64e87c4437767c.jpg Скачать фильм Бык и Шпиндель через торрент бесплантно в хорошем качестве Описание: Освободившийся из заключения вор-неудачник Василий Шпинягин по кличке Шпиндель возвращается в родной городок Приморск, где ... 10 10 5
Торрент: Зарегистрирован [2020-04-26 06:39] · скачан: 18 раз
Статус: √ проверено
Размер: 10.5 GB
Как cкачать? Как скачать Бык и Шпиндель через торрент | qTorrent

% Раздел Тема Автор DL S | L
Наши сериалы [ 2.72 GB ] Бык и Шпиндель / Серии: 1-4 из 4 [2015 комеди HDTVRip-AVC] bober100 Скачать
1 | 0
Наши сериалы [ 2.15 GB ] Бык и Шпиндель / Серии: 1-4 из 4 [2015 HDTVRip] bober100 Скачать
1 | 0
Наши сериалы [ 2.37 GB ] Бык и Шпиндель / Серии 1-4 из 4 [2014 Россия SATRip) GEKADOL Скачать
1 | 0

28-11-2019 20:33  

Отключить всю рекламу на сайте

    Дорогой пользователь! Огромная просьба, поблагодарите релизера, оцените раздачу и оставьте свои комментарий, если Вы скачали Бык и Шпиндель через торрент бесплатно! Внесите свою лепту в развитие PiratBit!
    Комментировать посты могут только пользователи прошедшие не сложную регистрацию
    Показать сообщения:    

    Бык и Шпиндель через торрент
    Скачать бесплатно Бык и Шпиндель
    Бык и Шпиндель скачать торрент
    Бык и Шпиндель смотреть онлайн
    Cкачать фильм Бык и Шпиндель бесплатно
    Бык и Шпиндель скачать торрент в хорошем качестве
    Бык и Шпиндель смотреть онлайн бесплатно в хорошем качестве


    Вы не можете начинать темы
    Вы не можете отвечать на сообщения
    Вы не можете редактировать свои сообщения
    Вы не можете удалять свои сообщения
    Вы не можете голосовать в опросах
    Вы не можете прикреплять файлы к сообщениям
    Вы можете скачивать файлы